<?xml version="1.0" standalone="no"?>
<!DOCTYPE svg PUBLIC "-//W3C//DTD SVG 1.1//EN" "http://www.w3.org/Graphics/SVG/1.1/DTD/svg11.dtd" >
<svg xmlns="http://www.w3.org/2000/svg">
<metadata></metadata>
<defs>
<font id="bc-iconregular" horiz-adv-x="1146" >
<font-face units-per-em="2048" ascent="1638" descent="-410" />
<missing-glyph horiz-adv-x="552" />
<glyph horiz-adv-x="0" />
<glyph horiz-adv-x="0" />
<glyph unicode="&#xd;" horiz-adv-x="0" />
<glyph unicode=" "  horiz-adv-x="552" />
<glyph unicode="&#x09;" horiz-adv-x="552" />
<glyph unicode="&#xa0;" horiz-adv-x="552" />
<glyph unicode="a" d="M1343 999q-129 -43 -518 -176q-139 160 -563 639q-121 -162 -485 -645q70 -6 141 -12q10 -340 19 -682q383 -76 765 -154q285 199 572 398v534q61 20 125 43q-19 18 -56 55zM-12 864q-18 2 -78 8q90 117 358 471q117 -133 469 -532q-45 2 -88 6l8 -770q-326 63 -651 129 q-6 229 -18 688zM1202 399q-119 -82 -473 -329q-2 168 -8 671q20 -2 84 -6q199 68 397 135v-471v0zM850 897q-127 143 -510 580q145 -14 580 -54q94 -96 378 -383q-110 -37 -448 -143zM1032 350q0 90 -4 365q35 14 137 55v-336q-33 -21 -133 -84zM780 621q47 16 191 71v-246 q-47 -27 -191 -106v281zM156 637q78 -8 313 -29v-311q-78 10 -313 45v295v0z" />
<glyph unicode="b" d="M1229 213v823q-27 23 -105 86v72q-178 139 -354 279h-78q-289 -135 -577 -269v-65l-172 -74v-899q-43 -37 -84 -76v-88h1476v88q-34 41 -106 123zM147 1188q139 61 560 250h24v-31q-293 -127 -584 -254v35zM778 90h-364v203q-55 -4 -217 -17v-186h-209v946 q395 166 790 330v-1276zM158 158q-39 -2 -150 -4v77q37 2 150 9v-82zM451 258q70 4 280 18v-104q-72 -2 -280 -6v92v0zM731 420q-180 -20 -723 -78v92q180 29 723 109v-123zM731 666q-180 -33 -723 -136v95q180 41 723 163v-122v0zM731 913q-180 -49 -723 -196v94 q180 57 723 225v-123v0zM731 1161q-180 -63 -723 -256v94q180 72 723 285v-123z" />
<glyph unicode="c" d="M633 1481q-27 0 -53 -2q-25 0 -50 -2q-23 -2 -47 -4q-20 -2 -43 -7q-20 -2 -41 -6q-20 -4 -39 -8q-18 -4 -36 -10q-16 -4 -33 -8q-14 -6 -31 -11q-14 -6 -29 -12q-12 -4 -24 -10q-12 -4 -23 -10q-12 -4 -22 -11q-8 -6 -19 -10q-8 -4 -14 -10q-8 -4 -14 -8t-13 -9l-8 -8 l-8 -4l-6 -6l-2 -2v0v-1360q496 63 993 129v1161l-2 2q0 4 -2 7l-4 8q-4 4 -8 10l-8 12q-6 8 -13 17q-6 8 -12 14q-8 10 -16 18t-19 17q-10 10 -22 18q-10 8 -23 19q-14 8 -29 16l-28 16q-16 8 -35 15q-18 6 -37 12q-18 6 -39 10q-23 6 -43 9q-25 4 -47 6q-26 2 -51 2z M608 147q-100 -10 -403 -45v543q100 4 403 17v-515zM608 750q-100 0 -403 -7q-2 256 0 510q0 2 2 2q2 2 4 2q4 4 8 7q4 2 10 6t15 8l16 8q10 4 21 8q12 4 22 11q14 4 29 8q14 4 28 10q16 4 33 8q18 4 37 6q20 4 39 9q23 2 43 4q25 2 47 4q25 0 49 2v-606zM979 190 q-70 -8 -283 -32v508q72 4 283 12v-488v0zM979 756q-70 -2 -283 -4q-23 301 0 600q2 18 54 -6q20 -8 47 -11q20 -4 39 -12q18 -8 34 -14q14 -6 29 -17q12 -8 25 -14q10 -8 18 -16q8 -6 14 -15q6 -6 11 -12l8 -8q2 -4 4 -6v-2v-463z" />
<glyph unicode="d" d="M172 86q229 96 924 387q8 -25 37 -96q-229 -98 -924 -391q-10 24 -37 100zM1133 537q-229 -96 -924 -385q-10 25 -37 100q229 96 924 383q8 -24 37 -98zM209 319q231 94 924 377q-8 25 -37 101q-231 -94 -924 -377q8 -27 37 -101zM1133 860q-229 -94 -924 -375 q-10 25 -37 101q229 92 924 372q8 -24 37 -98zM209 651q231 92 924 371q-8 25 -37 98q-231 -92 -924 -370q8 -25 37 -99zM1133 1184q-229 -92 -924 -367q-10 16 -37 64q229 92 924 372q8 -18 37 -69zM150 920v100q246 100 983 403v-106q-246 -100 -983 -397zM150 920 q-35 14 -140 57v96q35 -12 140 -53v-100zM96 911q-8 4 -33 15v-635q8 -2 33 -12v632zM150 1055q242 98 968 397q-33 10 -131 37q-242 -96 -964 -385q31 -12 127 -49z" />
<glyph unicode="e" d="M489 500q-8 10 -14 22q-12 16 -18 33q-4 12 -8 25q-6 14 -7 28q0 12 11 21q6 4 12 10q10 10 16 23q8 12 17 26q10 12 12 29q0 20 10 31q14 8 27 22q4 10 0 35q4 12 0 24q-4 14 -21 33q-4 4 0 19q2 12 0 26t0 31v31v22v13l-4 16q-2 10 -6 18q-4 10 -10 21q-6 10 -14 20 t-17 21q-12 10 -24 18q-14 10 -29 17q-16 8 -35 12q-20 6 -43 8q-23 4 -47 4q-25 0 -49 -4q-23 -2 -43 -8q-18 -4 -35 -12q-14 -6 -29 -17q-12 -8 -22 -18t-19 -21q-8 -10 -14 -20t-10 -21q-4 -8 -6 -18l-4 -16v-13v-22v-31v-31q-2 -14 0 -26q6 -12 2 -19q-14 -14 -23 -33 v-24q-4 -18 0 -35q4 -12 27 -22q4 -2 6 -13q4 -14 12 -26q10 -16 19 -35q6 -16 16 -29q8 -10 14 -16q10 -10 11 -21q-2 -14 -7 -28q-2 -12 -8 -25q-6 -16 -16 -33q-8 -12 -17 -22h-172v-2l-4 -4q-4 -4 -6 -9q-4 -6 -6 -10q-4 -8 -8 -14q-6 -8 -10 -17q-6 -10 -11 -20 q-6 -10 -10 -23l-12 -24q-6 -14 -10 -29q-6 -16 -11 -33q-6 -16 -10 -32q-4 -18 -8 -37q-4 -20 -6 -41q-4 -20 -6 -43t-5 -45q-2 -25 0 -49v0q2 -2 5 -2q2 -2 4 -3l8 -4l12 -4l12 -4q8 -2 17 -6q8 -2 18 -4q10 -4 21 -6q12 -2 24 -6q14 -2 29 -4q14 -4 31 -7l32 -4 q18 -4 37 -6q20 -2 41 -4q23 0 43 -2q25 -2 49 -2q25 -2 52 -2h73v0h58q27 0 53 2q25 0 49 2q23 2 45 4q20 2 41 4q18 2 37 4q16 4 33 6q14 2 31 7q12 2 26 6q10 2 23 6q10 2 18 4q8 4 16 6t15 6q6 2 10 4q6 2 10 4q2 0 4 3q2 0 4 2v0v4v14v18q-2 14 -2 27q-2 16 -4 31 q-2 18 -4 35q-2 18 -6 36t-8 39q-4 18 -10 37q-4 20 -13 39q-6 16 -14 35q-6 14 -14 31q-8 14 -17 28q-6 12 -14 23q-4 10 -10 18q-4 6 -8 13q0 2 -2 4h-173zM1243 489q-14 6 -31 7l-36 4t-37 4q-14 2 -29 0q-10 -2 -12 2q-2 10 -6 26q-6 18 -9 37q-4 14 9 27q12 12 26 22 q8 6 15 15q10 12 16 24q8 16 14 33h90h2l-2 4v6v15q2 8 2 16v19v22q0 12 -2 27q0 12 -2 26t-4 29q-2 14 -4 29q-2 14 -6 30q-4 14 -8 29q-4 16 -10 31q-6 14 -13 28q-8 12 -16 27q-8 12 -19 25q-10 12 -20 22q-12 10 -25 21q-12 8 -26 16q-16 6 -33 12q-16 4 -35 6 q-18 2 -39 5h-2v0q-20 0 -39 -5q-18 -2 -37 -6q-14 -6 -30 -12q-14 -8 -27 -16q-14 -10 -24 -21q-12 -10 -21 -22q-10 -12 -18 -25q-8 -14 -17 -27l-12 -28t-10 -31q-4 -14 -8 -29q-4 -16 -7 -30q-4 -14 -6 -29q-2 -14 -2 -29q-2 -14 -2 -26q-2 -14 -2 -27v-22v-19v-16 q0 -6 2 -15v-6q-2 -2 -2 -4h2h88q6 -16 15 -33q6 -12 16 -24q8 -8 16 -15q12 -10 23 -24q10 -12 8 -27q-2 -18 -8 -37q-4 -12 -6 -26q-39 0 -117 -2q4 -6 8 -13l8 -16t11 -16q4 -10 8 -21q6 -10 10 -20q6 -12 10 -23q6 -12 10 -24q6 -14 11 -27q6 -14 10 -29l8 -28 q6 -14 10 -31q4 -16 7 -31q8 -16 8 -33q-4 -25 4 -34q8 -6 29 -2q14 2 30 -2q14 -4 31 -2h47v0q35 0 68 2q29 2 57 4q25 2 47 6q20 4 41 8q14 4 31 10l24 8q10 4 19 11q8 4 14 8l8 8l6 6t2 4q2 2 3 2q-2 4 -5 9q-2 8 -6 18q-6 14 -10 29q-6 18 -14 36q-6 18 -15 37 q-6 20 -14 39q-6 18 -14 37q-4 14 -11 29q-6 10 -10 20q-2 6 -4 8z" />
<glyph unicode="f" d="M1130 995q2 -12 3 -26q2 -14 4 -27q0 -14 2 -27v-26v-27q0 -12 -2 -26q0 -14 -2 -27q-2 -14 -5 -29q-2 -12 -4 -26q-4 -12 -6 -27q-2 -14 -4 -27q-4 -12 -10 -24t-12 -23q-6 -12 -15 -24q-8 -14 -18 -27q-10 -14 -21 -29q-10 -12 -18 -24q-6 -12 -12 -25q-6 -12 -11 -24 q-4 -12 -6 -27l-4 -24v-27q0 -14 2 -27q2 -14 4 -26q4 -14 9 -27q4 -14 8 -27q4 -12 10 -24q4 -12 8 -25q6 -12 10 -24t11 -25q4 -12 10 -24q2 -12 8 -23q4 -14 8 -25q14 -23 4 -34q-10 -12 -34 -13q-12 0 -27 -4q-14 -2 -27 -4q-14 -2 -28 -6q-12 -2 -27 -6q-12 -2 -27 -4 q-12 -4 -26 -8q-14 -2 -27 -7q-14 -4 -29 -8q-12 -4 -26 -8t-27 -6l-28 -8t-27 -6q-14 -4 -29 -7q-14 -2 -26 -4q-14 -2 -27 -4q-14 -2 -29 -2q-12 0 -26 -2h-29q-12 0 -27 -2q-16 0 -30 4q-16 6 -25 19q-8 14 -14 30q-4 12 -8 25q-4 12 -9 24q-6 12 -10 25q-4 12 -8 25 q-6 12 -8 24q-4 18 -17 29q-12 10 -30 12q-16 2 -35 2q-16 2 -33 4h-27h-24h-27h-24h-27h-27q-18 2 -36 6q-16 4 -25 15q-10 12 -10 26q-2 18 2 37q2 14 4 27q2 14 2 29q0 12 -2 24q-2 14 -4 27l-4 24q-4 14 -9 27q-4 12 -8 25q-8 16 -10 30q-2 16 2 31q4 16 2 33 q-2 12 -14 22q-12 8 -25 17q-12 10 -26 18q-10 6 -19 14q-6 6 -8 15q-2 6 0 14q4 12 10 23q6 14 15 28q8 14 16 27q6 12 14 24t17 25q8 12 16 25l16 24t17 25q10 10 12 24q2 12 0 27q-2 14 -2 29q-2 14 -2 28q-2 12 -2 27q0 14 2 29l4 28t6 27q4 14 8 29q4 12 11 24 q4 12 10 25l12 24t15 23q6 12 14 24q6 12 14 23q8 12 17 22q8 10 16 21q8 10 18 18q12 10 23 19q12 6 25 14q12 8 24 17q12 6 25 14l24 12q12 8 25 15q14 4 26 10q12 4 25 10q14 4 27 6l24 8q14 2 27 4q12 4 24 7q14 2 27 2q12 2 27 2q12 2 24 2h27h27q12 -2 26 -2 q12 -2 25 -4q14 0 26 -2t27 -5q12 -2 27 -6l24 -4q16 -4 31 -8q12 -4 26 -10q12 -4 27 -10q12 -6 23 -13q12 -8 22 -16q12 -6 23 -15q8 -10 18 -18q10 -10 19 -20q8 -10 16 -21q8 -10 14 -22q8 -12 15 -23q6 -14 12 -27q6 -12 10 -26q6 -12 10 -27q4 -12 9 -26q4 -12 6 -25 q2 -14 6 -27l4 -24q4 -14 6 -27q2 -12 4 -26q4 -12 6 -27q4 -13 6 -25zM1008 219q2 8 -11 27q-8 10 -10 26q-4 12 -10 27q-6 12 -10 27q-4 12 -11 26q-4 12 -8 23q-6 12 -10 24t-6 25q-2 12 -4 25q-2 12 -2 24t2 25q2 12 6 24q4 14 8 27q6 14 12 26q6 14 15 25q6 12 16 23 q8 12 16 22q8 12 15 23l12 24q4 12 10 25q4 12 6 24q4 12 7 27q2 12 4 25q0 14 2 26v27v26v27q-2 12 -2 27q-2 12 -2 24q-2 12 -4 27q0 12 -2 24t-7 27q-2 12 -4 25q-2 12 -6 24q-2 12 -6 25q-4 14 -8 26t-8 25q-4 12 -11 25q-4 12 -10 22q-4 14 -12 27q-6 12 -14 22 q-6 12 -15 23q-8 10 -18 18q-10 10 -21 19q-10 8 -20 14q-12 8 -25 14q-12 4 -26 11q-12 4 -25 8q-12 4 -27 6q-12 4 -24 6q-12 4 -25 6q-14 2 -26 4q-12 0 -25 2q-14 2 -27 2h-26h-25q-12 0 -26 -2q-12 0 -25 -2q-14 -2 -27 -4q-12 -2 -26 -4q-12 -2 -25 -6q-12 -2 -24 -6 t-25 -10q-14 -4 -27 -11q-12 -6 -26 -12q-10 -6 -23 -12q-10 -6 -20 -13q-12 -8 -23 -14q-10 -8 -18 -16q-12 -10 -23 -21q-10 -10 -18 -20q-16 -20 -31 -41q-16 -20 -26 -41q-10 -16 -15 -35q-4 -14 -8 -27q-2 -14 -6 -26q-2 -12 -4 -27q-2 -12 -2 -26q-2 -12 -2 -27 q0 -12 2 -27q0 -14 2 -26q4 -14 2 -27q-2 -14 -10 -27q-8 -10 -17 -20q-6 -10 -14 -21q-6 -10 -15 -22q-6 -10 -14 -21q-6 -10 -12 -22q-6 -10 -12 -23q-10 -16 -19 -32q-6 -10 -2 -21q2 -10 12 -16q14 -10 31 -21q12 -6 21 -16q10 -8 12 -21q4 -12 2 -26q-4 -16 -2 -33 q0 -14 6 -29q6 -12 10 -26q4 -12 8 -25q2 -12 5 -24q2 -12 2 -27q0 -12 -2 -25q0 -14 -5 -28q-6 -18 0 -35q4 -16 19 -21q18 -8 37 -8q14 -2 26 -2h29h27h26h37h37q14 -2 29 -6q12 -6 20 -16q8 -12 10 -29q4 -14 9 -29q6 -14 10 -26q8 -14 12 -29q6 -14 10 -29q4 -14 17 -22 q10 -8 26 -6q12 0 27 2h25h26q14 2 27 2l24 4q14 4 29 6q12 4 27 6q12 4 26 8q12 2 27 7q12 2 27 6q12 4 26 6q12 4 27 8q12 2 26 6q12 4 27 6q12 4 27 8q14 2 26 7q14 6 27 6q23 4 29 16zM762 498q-6 -12 -25 -23q-14 -8 -26 -22q-10 -10 -25 -21q-14 -8 -27 -16 q-14 -6 -26 -8q-14 -2 -27 0q-14 2 -28 8t-27 16q-10 6 -21 17l-20 16q-8 10 -21 18q-16 6 -20 17q-4 12 0 30q2 14 0 29q-2 14 0 29v28q2 14 0 29q-2 14 -6 29q-4 12 -10 26q-6 12 -15 25q-8 12 -16 25q-8 14 -16 26t-17 25q-8 12 -14 26q-8 12 -15 25q-8 12 -12 25 q-6 12 -12 26q-4 12 -10 25q-4 14 -7 28q-4 12 -6 27q-2 14 -2 29q-2 16 -2 30q2 14 4 31q2 12 4 27q4 14 9 26q6 12 12 25q6 12 12 23q8 12 19 22q8 10 18 21q10 10 23 18l24 16t25 15q10 6 22 12q12 4 25 8q12 6 24 8q12 4 25 6q12 2 25 5q12 2 24 2h25q12 0 24 -2t25 -5 q12 -2 24 -6q14 -4 27 -8q12 -4 25 -10l24 -12t25 -15q12 -6 22 -16q10 -8 21 -16q10 -10 18 -19q8 -10 17 -20q6 -10 12 -23q6 -10 12 -22q4 -12 8 -25q4 -12 7 -25l4 -24v-27v-28q-2 -12 -4 -27q-4 -14 -7 -29l-8 -24t-10 -25q-4 -12 -10 -25q-4 -10 -11 -22 q-6 -10 -12 -23q-8 -10 -14 -22q-8 -12 -17 -25l-16 -24q-8 -14 -16 -27q-6 -12 -15 -24q-8 -14 -14 -29q-4 -14 -6 -29q-2 -14 -2 -31v-28q2 -14 0 -29q-2 -16 0 -31q4 -20 0 -32zM575 1016q8 12 25 18q12 4 25 4q14 -2 22 -10q12 -12 17 -29q4 -12 0 -24q-2 -14 -15 -21 q-20 -12 -16 -22q10 0 31 -14q20 -16 28 -15q10 2 15 37q2 12 22 16q20 6 29 0q20 -20 10 -43q-4 -23 -25 -26q-23 0 -34 -10q-8 -6 -7 -27q0 -12 -4 -25q-4 -12 -6 -26q-2 -12 -6 -25q-2 -14 -4 -26t-4 -27q-4 -12 -6 -25q2 -14 -4 -26q-10 -20 -2 -27h30q18 -4 29 0 q8 4 4 31q0 12 8 28q6 12 11 27q6 14 14 27q8 10 16 24q10 14 21 29q10 16 20 31q6 12 15 24q6 12 12 25q6 12 12 26q4 12 8 25q4 14 8 29q4 12 7 26q2 14 4 29q0 14 -2 29q0 14 -2 26q-4 14 -9 27q-4 12 -10 24t-12 23q-8 10 -16 21q-10 10 -21 18q-10 10 -22 18t-25 15 q-12 6 -27 12l-24 8q-14 4 -27 8q-12 2 -26 4q-12 2 -25 5h-27q-12 -2 -26 -2q-12 -2 -25 -7q-14 -2 -27 -6q-14 -4 -26 -8q-12 -6 -27 -12q-12 -6 -24 -15q-12 -8 -23 -16q-10 -8 -20 -18q-8 -10 -17 -21q-8 -10 -14 -22t-10 -25q-4 -12 -9 -25q-2 -14 -4 -26v-29 q0 -14 2 -31q2 -14 5 -28q4 -14 8 -29q4 -14 8 -29q6 -12 12 -26q4 -12 13 -27q6 -12 14 -24q6 -14 14 -27q8 -10 15 -23q8 -10 14 -22q8 -10 14 -23q8 -10 12 -22q6 -12 13 -25q8 -12 8 -24q-2 -20 4 -27q8 2 31 0q18 -4 28 0q6 2 -6 27q-4 10 -4 26q-2 12 -6 25 q-4 14 -4 27q-2 12 -6 26q-2 12 -4 25q-2 12 -6 26q-6 12 -5 25q2 18 -6 24q-14 12 -39 17q-12 4 -20 18q-6 12 -6 25q2 16 16 22t29 2q10 -4 16 -14q10 -8 10 -20q0 -23 9 -25q6 8 30 19q25 6 29 16t-22 29q-10 8 -9 24q0 17 6 29zM545 879q-2 -10 4 -27q4 -12 4 -27 q2 -12 6 -26q2 -12 4 -27q0 -12 4 -24q2 -14 4 -27q2 -14 4 -27q6 -12 5 -26q-4 -20 4 -25h34q18 -4 33 0q8 0 4 27q0 10 4 24t5 27q2 14 4 27q4 12 4 26q2 12 4 27l4 24q0 14 4 27q10 16 4 27q-6 8 -24 14q-12 2 -23 12q-12 14 -23 15q-12 -2 -24 -15q-10 -10 -23 -12 q-20 -4 -26 -14zM717 596q2 10 -29 0q-12 -2 -29 0q-12 2 -26 0h-29q-14 -2 -26 0q-16 2 -29 0q-31 -4 -27 -23q0 -8 27 0q12 2 29 0q12 -2 26 0h29h26q14 -2 29 0q27 3 29 23zM520 514q-2 -10 29 0q12 2 29 0q12 -2 26 0h29q14 2 29 0q14 -2 26 0q31 4 27 23q-2 8 -29 0 q-12 -2 -27 0q-14 2 -28 0h-27h-29q-14 2 -26 0q-29 -3 -29 -23zM559 477q-2 -10 27 -18q10 -4 22 -10q8 -4 21 0q10 6 20 10q27 6 25 18q-2 8 -29 0h-27q-16 -2 -28 0q-29 6 -31 0zM616 944q10 0 23 23q10 16 8 22q-8 29 -35 29q-25 -2 -24 -23q0 -10 6 -24q10 -25 22 -27z M741 944q-12 0 -20 -14q-16 -25 -8 -33t28 8q14 8 17 19q3 16 -17 20zM481 913q23 -29 41 -10q10 10 -12 29q-14 14 -23 10q-18 -11 -6 -29z" />
<glyph unicode="g" d="M1249 1120q-6 31 -28 45q-6 4 -21 -14q-8 -8 -22 -12q-10 -6 -21 -15q-10 -8 -22 -14q-10 -6 -21 -14q-10 -8 -22 -15q-10 -8 -21 -14l-20 -16q-10 -6 -21 -15q-10 -8 -20 -14q-10 -8 -21 -16q-10 -8 -20 -17q-10 -8 -19 -16q-10 -8 -20 -17q-10 -8 -21 -16 q-8 -8 -18 -16t-19 -17q-10 -8 -20 -18q-8 -8 -18 -17q-10 -8 -19 -18q-10 -8 -18 -16l-19 -19l-18 -18q-8 -10 -19 -19q-8 -10 -18 -18q-8 -10 -16 -21q-10 -8 -19 -18l-16 -20l-19 -19l-16 -20t-16 -21q-8 -10 -17 -20q-8 -10 -16 -21q-8 -10 -17 -20q-8 -10 -16 -21 q-8 -10 -16 -22q-8 -10 -17 -21q-8 -10 -14 -22q-8 -10 -16 -21q-8 -12 -15 -22q-8 -12 -16 -23q-8 -12 -15 -22q-8 -12 -14 -23q-8 -12 -16 -25q-6 -10 -15 -22q-6 -12 -14 -23l-12 -24q-8 -12 -15 -25q-12 -10 -14 -22q-6 -31 -14 -25q-12 10 -17 41q-6 18 -18 37 q-10 16 -16 37q-6 14 -17 31l-16 28q-8 12 -17 25q-6 10 -14 22q-8 8 -14 17q-8 8 -15 16q-8 6 -14 12q-8 4 -14 9q-6 2 -13 4q-8 2 -14 2q-14 0 -29 -2q-14 -2 -28 -6q-14 -6 -27 -15l-24 -20q-16 -12 -25 -27q-2 -2 10 0q6 0 13 -2q4 -4 10 -6t12 -6l10 -10l13 -13l12 -12 l12 -16q8 -10 14 -19q6 -10 13 -20q6 -12 12 -23q8 -12 14 -24q8 -14 15 -27q6 -14 14 -31q6 -14 14 -30q6 -16 15 -33q8 -18 14 -37q8 -18 16 -37q8 -20 15 -41q14 -18 16 -41q2 -33 17 -45q6 -6 20 18q6 10 21 19q12 6 22 16q10 8 21 15q10 8 22 14q14 4 23 12q6 10 10 25 q2 12 10 24q6 10 10 23q4 12 11 25q6 10 10 22q6 12 10 23q6 12 12 22q4 12 11 25q6 10 12 22q6 10 12 23q6 10 12 22q6 10 13 23l12 20q6 12 12 23q6 12 13 22q8 10 14 21q6 12 12 22q8 10 15 21q8 12 14 22t14 21q6 10 15 20q8 12 14 23q8 10 14 20q8 10 17 21q8 10 14 20 q8 10 16 21q8 10 17 18q8 10 16 21q6 10 14 20t19 21q8 8 16 18t17 21q8 8 16 18l18 18q8 10 19 21q8 8 16 18q10 8 19 19q10 8 18 18q10 8 19 19q10 8 20 18l18 18q10 8 19 17q10 10 20 18t21 19l20 16l19 19l20 16q12 8 23 16q10 8 20 19q10 8 21 16q10 8 22 16 q10 8 21 17q12 8 22 16z" />
<glyph unicode="&#x2000;" horiz-adv-x="744" />
<glyph unicode="&#x2001;" horiz-adv-x="1489" />
<glyph unicode="&#x2002;" horiz-adv-x="744" />
<glyph unicode="&#x2003;" horiz-adv-x="1489" />
<glyph unicode="&#x2004;" horiz-adv-x="496" />
<glyph unicode="&#x2005;" horiz-adv-x="372" />
<glyph unicode="&#x2006;" horiz-adv-x="248" />
<glyph unicode="&#x2007;" horiz-adv-x="248" />
<glyph unicode="&#x2008;" horiz-adv-x="186" />
<glyph unicode="&#x2009;" horiz-adv-x="297" />
<glyph unicode="&#x200a;" horiz-adv-x="82" />
<glyph unicode="&#x202f;" horiz-adv-x="297" />
<glyph unicode="&#x205f;" horiz-adv-x="372" />
<glyph unicode="&#x25fc;" horiz-adv-x="1024" d="M0 0v0v0v0v0z" />
</font>
</defs>
</svg>
