<?xml version="1.0" standalone="no"?>
<!DOCTYPE svg PUBLIC "-//W3C//DTD SVG 1.1//EN" "http://www.w3.org/Graphics/SVG/1.1/DTD/svg11.dtd" >
<svg xmlns="http://www.w3.org/2000/svg">
<metadata></metadata>
<defs>
<font id="AllerLightRegular" horiz-adv-x="1228" >
<font-face units-per-em="2048" ascent="1638" descent="-410" />
<missing-glyph horiz-adv-x="512" />
<glyph unicode="&#xfb01;" horiz-adv-x="1189" d="M72 985q0 39 4 59h178v93q0 385 401 385q124 0 256 -43q0 -41 -34 -117q-29 10 -52.5 18.5t-48.5 13.5q-53 11 -116.5 11t-114.5 -11.5t-86 -41.5q-70 -62 -70 -222v-86h621v-1044q-65 -11 -136 0v930h-485v-930q-24 -4 -67.5 -4t-67.5 4v930h-178q-4 20 -4 55z" />
<glyph unicode="&#xfb02;" horiz-adv-x="1226" d="M72 985q0 39 4 59h178v93q0 193 100.5 289t311.5 96q139 0 305 -37v-1243q0 -132 83 -143q23 -3 55.5 -3t74.5 10q14 -36 20 -106q-98 -34 -217 -9q-91 19 -131 104q-20 44 -20 116v1180q-74 16 -158.5 16t-135 -11.5t-84.5 -41.5q-69 -62 -69 -224v-86h266q4 -20 4 -59 q0 -35 -4 -55h-266v-930q-24 -4 -67.5 -4t-67.5 4v930h-178q-4 20 -4 55z" />
<glyph unicode="&#xfb03;" horiz-adv-x="1816" d="M72 985q0 39 4 59h178v82q0 193 85 289t269 96q65 0 148 -20q-4 -44 -33 -115q-76 17 -121 17t-86 -11.5t-68 -41.5q-59 -62 -59 -220v-76h492v93q0 385 401 385q124 0 256 -43q0 -44 -35 -117q-29 10 -52.5 18.5t-48.5 13.5q-53 11 -116.5 11t-114.5 -11.5t-85 -41.5 q-70 -62 -70 -222v-86h620v-1044q-68 -11 -135 0v930h-485v-930q-68 -11 -135 0v930h-492v-930q-24 -4 -67.5 -4t-67.5 4v930h-178q-4 20 -4 55z" />
<glyph unicode="&#xfb04;" horiz-adv-x="1853" d="M72 985q0 39 4 59h178v82q0 193 85 289t269 96q65 0 148 -20q-4 -44 -33 -115q-76 17 -121 17t-86 -11.5t-68 -41.5q-59 -62 -59 -220v-76h492v93q0 193 100 289t311 96q139 0 305 -37v-1243q0 -132 85 -143q22 -3 55 -3t73 10q16 -39 21 -106q-98 -34 -217 -9 q-152 32 -152 220v1180q-74 16 -158 16t-135 -11.5t-85 -41.5q-68 -63 -68 -224v-86h266q4 -20 4 -59q0 -35 -4 -55h-266v-930q-68 -11 -135 0v930h-492v-930q-24 -4 -67.5 -4t-67.5 4v930h-178q-4 20 -4 55z" />
<glyph horiz-adv-x="0" />
<glyph horiz-adv-x="2048" />
<glyph unicode="&#xd;" horiz-adv-x="1024" />
<glyph unicode=" "  horiz-adv-x="512" />
<glyph unicode="&#x09;" horiz-adv-x="512" />
<glyph unicode="&#xa0;" horiz-adv-x="512" />
<glyph unicode="!" horiz-adv-x="579" d="M197 87q0 44 6 87q43 6 87 6t87 -6q6 -43 6 -87t-6 -87q-43 -6 -87 -6t-87 6q-6 43 -6 87zM223 1473q32 4 68 4t78 -4l-9 -1053q-32 -4 -65 -4q-30 0 -64 4z" />
<glyph unicode="&#x22;" horiz-adv-x="845" d="M154 922v551q28 4 70.5 4t70.5 -4v-551q-28 -4 -70.5 -4t-70.5 4zM551 922v551q28 4 70.5 4t70.5 -4v-551q-28 -4 -70.5 -4t-70.5 4z" />
<glyph unicode="#" horiz-adv-x="1507" d="M147 490.5q0 24.5 5 64.5h280l35 406h-272q-13 59 0 116h282l29 338q18 4 36 4h57t40 -2l-29 -340h424l29 338q18 4 37 4h58t40 -2l-29 -340h258q5 -30 5 -59.5t-5 -56.5h-268l-35 -406h258q4 -24 4 -54.5t-4 -64.5h-268l-31 -377q-32 -4 -65 -4q-32 0 -66 4l31 377h-424 l-31 -377q-32 -4 -69 -4q-36 0 -70 4l33 377h-270q-5 30 -5 54.5zM567 555h424l35 406h-426z" />
<glyph unicode="$" d="M170 33q8 60 37 131q29 -8 59.5 -18.5t68.5 -18.5q100 -21 193 -21q195 0 286 83t91 210q0 119 -69 183q-63 61 -271 141q-178 67 -238.5 119.5t-89 113t-28.5 152.5q0 143 89 236.5t261 119.5v185q27 6 56.5 6t60.5 -6v-176q164 0 307 -43q-9 -73 -29 -123 q-132 43 -290 43t-232 -66.5t-74 -173.5q0 -101 85 -165q58 -44 179 -91t196 -83t128 -84q115 -104 115 -277.5t-102.5 -281.5t-282.5 -138v-232q-29 -6 -57.5 -6t-59.5 6v219q-12 -2 -21 -2h-18q-121 0 -200.5 17.5t-149.5 40.5z" />
<glyph unicode="%" horiz-adv-x="2150" d="M86 1038q0 190 93 308q99 127 284 127q181 0 281 -127q94 -117 94 -308q0 -193 -94 -310q-99 -124 -283 -124t-282 124q-93 117 -93 310zM229 1038q0 -154 54.5 -235.5t177.5 -81.5q233 0 233 317q0 154 -54 236t-177 82q-234 0 -234 -318zM506 0l991 1448q32 4 60 4 q46 0 88 -4l-990 -1448q-20 -4 -39 -4h-65.5t-44.5 4zM1284 413q0 190 93 308q99 127 284 127q181 0 281 -127q94 -117 94 -308q0 -193 -94 -310q-99 -124 -283 -124t-282 124q-93 117 -93 310zM1427 413q0 -154 54.5 -235.5t177.5 -81.5q233 0 233 317q0 154 -54 236 t-177 82q-234 0 -234 -318z" />
<glyph unicode="&#x26;" horiz-adv-x="1556" d="M137 418q0 132 72 252q78 131 199 178q-96 35 -160 108.5t-64 181t34 172t92 105.5q117 82 300 82q128 0 232 -33q-6 -58 -33 -108q-112 26 -189 26t-132.5 -20.5t-90.5 -51.5q-69 -63 -69 -164q0 -212 295 -212h507v186l127 123h9v-309h256q4 -28 4 -62q0 -31 -4 -63 h-256v-340q0 -240 -163 -371q-155 -123 -419 -123q-237 0 -386 105q-161 114 -161 338zM291 430.5q0 -152.5 102.5 -236t294.5 -83.5q358 0 420 249q18 72 22 152v297h-466q-168 0 -274 -117q-99 -109 -99 -261.5z" />
<glyph unicode="'" horiz-adv-x="448" d="M154 922v551q28 4 70.5 4t70.5 -4v-551q-28 -4 -70.5 -4t-70.5 4z" />
<glyph unicode="(" horiz-adv-x="593" d="M102 623q0 291 82 570q71 243 174 396q32 4 57 4q39 0 77 -4q-100 -180 -146 -319q-106 -317 -106 -647q0 -332 100 -630q52 -155 152 -335q-32 -4 -61 -4q-43 0 -73 4q-170 258 -234 666q-22 145 -22 299z" />
<glyph unicode=")" horiz-adv-x="593" d="M102 -342q100 180 146 318q106 315 106 647q0 330 -100 630q-52 156 -152 336q36 4 61 4q39 0 73 -4q167 -253 233 -667q23 -146 23 -299q0 -286 -82 -571q-68 -234 -174 -394q-28 -4 -52 -4q-50 0 -82 4z" />
<glyph unicode="*" horiz-adv-x="995" d="M117 1157q6 53 33 98l243 -69q-10 -61 -37 -119zM242 803l141 211q51 -27 102 -72l-159 -201q-53 25 -84 62zM455 1219l12 254q25 6 49.5 6t52.5 -6l11 -254q-20 -5 -62 -5h-32q-15 0 -31 5zM547 942q45 43 100 76l141 -215q-41 -41 -83 -60zM631 1188l248 67 q30 -54 30 -98l-237 -88q-25 55 -41 119z" />
<glyph unicode="+" d="M193 684v68q0 16 4 32h352v379q32 4 65 4q32 0 68 -4v-379h352q4 -32 4 -65q0 -34 -4 -68h-352v-379q-18 -4 -34 -4h-58.5t-40.5 4v379h-352q-4 16 -4 33z" />
<glyph unicode="," horiz-adv-x="419" d="M61 -231l111 405q32 4 70 4q35 0 71 -4l-110 -405q-25 -5 -57 -5h-50q-18 0 -35 5z" />
<glyph unicode="-" horiz-adv-x="722" d="M88 582q0 49 4 69h539q4 -20 4 -69q0 -48 -4 -68h-539q-4 20 -4 68z" />
<glyph unicode="." horiz-adv-x="419" d="M117 87q0 44 6 87q43 6 87 6t87 -6q6 -43 6 -87t-6 -87q-43 -6 -87 -6t-87 6q-6 43 -6 87z" />
<glyph unicode="/" horiz-adv-x="841" d="M106 0l498 1473q31 6 63 6t68 -6l-499 -1473q-31 -6 -65 -6t-65 6z" />
<glyph unicode="0" d="M111 653q0 306 129 488q134 190 374 190q241 0 376 -190q128 -182 128 -488q0 -305 -128 -487q-135 -191 -376 -191q-240 0 -374 191q-129 182 -129 487zM258 653q0 -274 92 -411.5t263 -137.5t263.5 137.5t92.5 411.5t-92.5 411.5t-262.5 137.5t-263 -137t-93 -412z" />
<glyph unicode="1" d="M229 1065l512 262h11v-1204h292q7 -56 7 -60q0 -26 -7 -63h-747q-4 16 -4 63.5t4 59.5h315v1003l-329 -161q-28 31 -54 100z" />
<glyph unicode="2" d="M121 27l399 426q61 66 115.5 127t94.5 122q87 134 87 248q0 254 -295 254q-104 0 -183 -26.5t-140 -55.5q-19 51 -37 121q183 90 358 90q320 0 415 -209q32 -71 32 -152.5t-18.5 -144.5t-56.5 -129q-66 -113 -228 -286l-265 -281h625q4 -32 4 -67.5t-4 -63.5h-893z" />
<glyph unicode="3" d="M113 -92q18 59 57 123q122 -60 297 -60q418 0 418 361q0 129 -85 198.5t-245 69.5q-105 0 -180 -16l-15 24l392 574h-582q-4 16 -4 30v64q0 18 4 35h809l8 -17l-403 -581q10 2 24 2h23q197 0 308 -131q91 -107 91 -246t-46 -232.5t-124 -152.5q-152 -115 -393 -115 q-143 0 -278 40q-44 13 -76 30z" />
<glyph unicode="4" d="M96 176l615 1178q48 -8 118 -47l-518 -1022h504v436q37 6 70 6t67 -6v-436h219q13 -74 0 -129h-219v-279q-18 -4 -36 -4h-59t-42 4v279h-704z" />
<glyph unicode="5" d="M150 -104q14 71 47 122q112 -47 274 -47q406 0 406 357q0 220 -185 294q-69 27 -153.5 27t-253.5 -26l-15 14l27 674h668q4 -16 4 -31v-64q0 -18 -4 -34h-541l-14 -420q62 12 159.5 12t183 -30.5t145.5 -87.5q128 -120 128 -324q0 -250 -169 -379q-150 -115 -390 -115 q-190 0 -317 58z" />
<glyph unicode="6" d="M150 563q0 376 178 620q200 274 579 316q13 -39 13 -76t-2 -47q-251 -27 -413 -189q-147 -147 -200 -394q-4 -23 -8 -43.5t-6 -42.5q51 98 151.5 161.5t237.5 63.5q175 0 294 -110q138 -126 138 -359q0 -226 -150 -363q-137 -125 -327 -125q-485 0 -485 588zM307 436.5 q0 -166.5 84 -248.5t236 -82q149 0 242 91q98 96 98 260q0 173 -95 264q-84 80 -226 80q-67 0 -128 -25.5t-108 -71.5q-103 -101 -103 -267.5z" />
<glyph unicode="7" d="M141 1241q0 35 6 70h947l6 -6l-639 -1459q-85 20 -129 62l565 1274h-752q-4 24 -4 59z" />
<glyph unicode="8" d="M119 367q0 237 225 358q62 33 119 55q-277 112 -277 355q0 147 122 245q117 93 306 93q190 0 306 -93q122 -97 122 -245q0 -244 -276 -355q153 -62 217 -124t95.5 -129.5t31.5 -166.5t-43 -174t-113 -122q-133 -89 -340 -89q-206 0 -340 89q-155 105 -155 303zM276 381 q0 -129 85 -204t253 -75t253 76t85 205q0 183 -206 279q-62 30 -132 53q-338 -108 -338 -334zM330 1116q0 -103 89 -176q72 -60 195 -92q124 33 180 79t80.5 89t24.5 100q0 109 -72 172.5t-213 63.5t-212.5 -63.5t-71.5 -172.5z" />
<glyph unicode="9" d="M121 838q0 226 149 362q137 125 328 125q234 0 352 -131q133 -146 133 -463q0 -168 -43 -327.5t-135 -285.5q-200 -273 -579 -317q-13 40 -13 77.5t2 45.5q249 27 413 190q147 145 200 394q4 23 8 43t6 43q-51 -98 -151.5 -161.5t-237.5 -63.5q-177 0 -295 109 q-137 127 -137 360zM266 844q0 -174 94 -264q84 -80 227 -80q67 0 128 25.5t108 71.5q103 101 103 267t-84 248t-236 82q-146 0 -242 -91q-98 -92 -98 -259z" />
<glyph unicode=":" horiz-adv-x="419" d="M117 87q0 44 6 87q43 6 87 6t87 -6q6 -43 6 -87t-6 -87q-43 -6 -87 -6t-87 6q-6 43 -6 87zM117 964q0 44 6 87q43 6 87 6t87 -6q6 -43 6 -87t-6 -87q-43 -6 -87 -6t-87 6q-6 43 -6 87z" />
<glyph unicode=";" horiz-adv-x="454" d="M61 -231l111 405q32 4 70 4q35 0 71 -4l-110 -405q-25 -5 -57 -5h-50q-18 0 -35 5zM152 964q0 44 6 87q43 6 87 6t87 -6q6 -43 6 -87t-6 -87q-43 -6 -87 -6t-87 6q-6 43 -6 87z" />
<glyph unicode="&#x3c;" d="M170 713.5q0 48.5 8 74.5l856 355q6 -35 6 -77t-6 -67l-710 -286l710 -279q8 -31 8 -68q0 -63 -8 -83l-856 354q-8 28 -8 76.5z" />
<glyph unicode="=" d="M174 526q0 50 4 72h873q4 -20 4 -72q0 -46 -4 -68h-873q-4 20 -4 68zM174 899q0 50 4 72h873q4 -20 4 -72q0 -46 -4 -68h-873q-4 20 -4 68z" />
<glyph unicode="&#x3e;" d="M170 1059q0 64 8 84l856 -355q8 -28 8 -76t-8 -75l-856 -354q-6 33 -6 75.5t6 67.5l711 287l-711 278q-8 31 -8 68z" />
<glyph unicode="?" horiz-adv-x="993" d="M88 1427q161 52 326 52q240 0 362.5 -108.5t122.5 -295.5q0 -185 -151 -308q-104 -84 -222 -118v-229q-36 -4 -71 -4q-40 0 -68 4v317l70 23q291 91 291 311q0 139 -98.5 210t-256.5 71q-96 0 -153.5 -14.5t-112.5 -32.5q-16 38 -39 122zM367 91q0 44 6 87q43 6 87 6 t87 -6q6 -43 6 -87t-6 -87q-43 -6 -87 -6t-87 6q-6 43 -6 87z" />
<glyph unicode="@" horiz-adv-x="2091" d="M133 432q0 407 262 716q182 214 483 302q154 45 326.5 45t307.5 -42t234 -127q212 -182 212 -517q0 -270 -140 -470q-67 -97 -166.5 -157.5t-232.5 -60.5t-219 55q-112 -74 -293 -74q-147 0 -234 93q-81 87 -81 225.5t47 257.5t128 205t189.5 134t205.5 48q137 0 292 -41 l-158 -758q44 -35 137 -35t164.5 53.5t121.5 137.5q102 171 102 387q0 276 -161 419.5t-454 143.5q-221 0 -394 -80t-292 -211t-180 -299t-61 -340t48 -293.5t132 -199.5q164 -152 442 -152q173 0 340 58q25 -66 31 -109q-155 -65 -406 -65q-322 0 -519 185 q-214 201 -214 566zM743 449q0 -115 50.5 -169.5t162.5 -54.5q98 0 201 54l133 649q-51 14 -124.5 14t-153.5 -37t-140 -103q-129 -142 -129 -353z" />
<glyph unicode="A" horiz-adv-x="1232" d="M41 0l491 1473q28 4 68 4q72 0 100 -4l492 -1473q-24 -4 -60 -4q-62 0 -92 4l-122 375h-607l-116 -375q-32 -4 -65 -4q-65 0 -89 4zM352 506h525l-265 819z" />
<glyph unicode="B" horiz-adv-x="1202" d="M207 0v1473q220 22 305 22q500 0 500 -383q0 -118 -72 -210q-63 -81 -168 -114q226 -29 302 -220q28 -68 28 -172t-44 -183.5t-123 -132.5t-186.5 -79t-234 -26t-307.5 25zM348 115q80 -11 169 -11t166 14.5t137 49.5q130 77 130 235q0 161 -114 240q-102 70 -279 70 h-209v-598zM348 846h195q166 0 242.5 73.5t76.5 188.5t-81 189.5t-255 74.5q-91 0 -178 -12v-514z" />
<glyph unicode="C" horiz-adv-x="1265" d="M131 721q0 363 183 573q178 203 489 203q181 0 340 -49q-6 -53 -33 -121q-27 8 -54.5 16.5t-62.5 14.5q-82 14 -195.5 14t-209.5 -44t-164 -128q-141 -174 -141 -479q0 -304 155 -468q142 -151 379 -151q186 0 307 66q38 -74 47 -119q-148 -74 -368 -74q-304 0 -485 193 q-187 198 -187 553z" />
<glyph unicode="D" horiz-adv-x="1431" d="M207 0v1473q159 22 346 22t329 -52t235 -149q183 -192 183 -555q0 -764 -753 -764q-177 0 -340 25zM348 123q111 -12 221.5 -12t224 30.5t193.5 104.5q166 152 166 484t-163 481t-451 149q-133 0 -191 -10v-1227z" />
<glyph unicode="E" horiz-adv-x="1105" d="M207 0v1473h788q4 -24 4 -64t-4 -66h-647v-497h520q4 -24 4 -64.5t-4 -64.5h-520v-588h666q4 -24 4 -64.5t-4 -64.5h-807z" />
<glyph unicode="F" horiz-adv-x="1028" d="M207 0v1473h723q4 -24 4 -64t-4 -66h-582v-497h504q4 -24 4 -64.5t-4 -64.5h-504v-717q-28 -4 -72.5 -4t-68.5 4z" />
<glyph unicode="G" horiz-adv-x="1413" d="M133 721q0 360 194 573q186 203 484 203q185 0 354 -51q-7 -62 -32 -125q-143 51 -314 51q-239 0 -383 -172q-151 -179 -151 -479t159 -465q146 -150 417 -150q144 0 231 31v623q28 4 70.5 4t70.5 -4v-717q-92 -47 -297 -63q-57 -5 -113 -5q-308 0 -493 189 q-197 201 -197 557z" />
<glyph unicode="H" horiz-adv-x="1421" d="M207 0v1473q28 4 70.5 4t70.5 -4v-627h725v627q28 4 70.5 4t70.5 -4v-1473q-24 -4 -68.5 -4t-72.5 4v717h-725v-717q-28 -4 -72.5 -4t-68.5 4z" />
<glyph unicode="I" horiz-adv-x="555" d="M207 0v1473q28 4 70.5 4t70.5 -4v-1473q-28 -4 -72.5 -4t-68.5 4z" />
<glyph unicode="J" horiz-adv-x="788" d="M61 2q6 57 35 125q78 -23 126 -23t86 7.5t71 28.5q74 49 74 171v1037h-271q-4 20 -4 61.5t4 63.5h410v-1180q0 -170 -106 -250q-89 -68 -236 -68q-94 0 -189 27z" />
<glyph unicode="K" horiz-adv-x="1214" d="M207 0v1473q28 4 70.5 4t70.5 -4v-1473q-28 -4 -72.5 -4t-68.5 4zM444 754l519 719q32 4 61 4q48 0 92 -4l-504 -705l582 -768q-46 -4 -78 -4q-54 0 -90 4z" />
<glyph unicode="L" horiz-adv-x="1017" d="M207 0v1473q24 4 68.5 4t72.5 -4v-1344h629q4 -24 4 -64.5t-4 -64.5h-770z" />
<glyph unicode="M" horiz-adv-x="1669" d="M176 0l72 1473q24 4 88 4q62 0 90 -4l412 -981l407 981q24 4 88 4q60 0 88 -4l72 -1473q-28 -4 -59 -4q-58 0 -82 4l-56 1253l-405 -948q-14 -4 -29 -4h-48.5t-35.5 4l-401 950l-60 -1255q-28 -4 -72.5 -4t-68.5 4z" />
<glyph unicode="N" horiz-adv-x="1409" d="M207 0v1473q28 4 78 4q47 0 75 -4l705 -1233v1233q28 4 68.5 4t68.5 -4v-1473q-24 -4 -59 -4q-66 0 -94 4l-705 1223v-1223q-28 -4 -70.5 -4t-66.5 4z" />
<glyph unicode="O" horiz-adv-x="1478" d="M131 737q0 342 151 546q157 214 457 214q299 0 458 -214q151 -203 151 -546t-151 -547q-158 -215 -458 -215t-457 215q-151 205 -151 547zM279 737q0 -451 254 -587q87 -46 206 -46q227 0 349 177q112 164 112 456q0 448 -256 585q-86 46 -205 46q-231 0 -349 -175 q-111 -165 -111 -456z" />
<glyph unicode="P" horiz-adv-x="1134" d="M207 0v1473q20 2 57 7t81 8q132 9 213 9t179.5 -24.5t168.5 -78.5q149 -112 149 -343q0 -247 -163 -371q-146 -111 -382 -111q-81 0 -162 9v-578q-28 -4 -72.5 -4t-68.5 4zM348 709q90 -9 158 -9t139.5 12.5t130.5 50.5q129 84 129 288q0 249 -231 301q-74 16 -166 16 t-160 -10v-649z" />
<glyph unicode="Q" horiz-adv-x="1478" d="M131 737q0 342 151 546q157 214 457 214q299 0 458 -214q151 -203 151 -546t-151 -547q-158 -215 -458 -215t-457 215q-151 205 -151 547zM279 737q0 -451 254 -587q87 -46 206 -46q227 0 349 177q112 164 112 456q0 448 -256 585q-86 46 -205 46q-231 0 -349 -175 q-111 -165 -111 -456zM885 -186q0 56 26 123l443 -84q0 -70 -25 -127z" />
<glyph unicode="R" horiz-adv-x="1202" d="M207 0v1479q203 18 297 18t189 -20.5t171 -70.5q168 -111 168 -349q0 -146 -103 -263q-86 -99 -247 -159l469 -635q-20 -4 -41 -4h-70t-51 4l-516 682v8l45 12q248 64 332 220q31 57 31 135q0 160 -98.5 239.5t-266.5 79.5q-83 0 -168 -10v-1366q-28 -4 -70.5 -4t-70.5 4 z" />
<glyph unicode="S" horiz-adv-x="1107" d="M115 33q8 60 37 131q29 -8 59.5 -18.5t68.5 -18.5q98 -21 194.5 -21t167.5 24t117 64q91 78 91 212q0 119 -69 186q-64 62 -271 143q-177 66 -238 121t-89.5 116.5t-28.5 153.5q0 166 119.5 268.5t349.5 102.5q138 0 211 -18.5t94 -24.5q-8 -62 -29 -123q-132 43 -290 43 t-232 -69.5t-74 -176.5q0 -103 85 -168q59 -44 179.5 -92.5t195.5 -85.5t128 -86q115 -106 115 -276q0 -212 -146 -329q-143 -116 -395 -116q-176 0 -350 58z" />
<glyph unicode="T" horiz-adv-x="1013" d="M37 1408.5q0 38.5 4 64.5h932q4 -24 4 -63.5t-4 -63.5h-395v-1346q-28 -4 -72 -4t-70 4v1346h-395q-4 24 -4 62.5z" />
<glyph unicode="U" horiz-adv-x="1384" d="M190 565v908q28 4 70 4t72 -4v-889q0 -373 198 -448q68 -25 162 -25q186 0 273.5 108.5t87.5 364.5v889q28 4 70.5 4t70.5 -4v-908q0 -295 -121 -442.5t-381 -147.5t-381 147.5t-121 442.5z" />
<glyph unicode="V" horiz-adv-x="1263" d="M63 1473q24 4 61 4q73 0 101 -4l412 -1334l405 1334q32 4 65 4q69 0 93 -4l-483 -1473q-28 -4 -67 -4q-75 0 -103 4z" />
<glyph unicode="W" horiz-adv-x="1886" d="M74 1473q24 4 62 4q72 0 102 -4l284 -1315l338 1315q24 4 63 4q83 0 111 -4l336 -1315l289 1315q32 4 63 4q66 0 90 -4l-356 -1473q-28 -4 -69 -4q-87 0 -115 4l-330 1282l-328 -1282q-28 -4 -69 -4q-87 0 -115 4z" />
<glyph unicode="X" horiz-adv-x="1210" d="M51 0l395 772l-342 701q46 4 70 4q52 0 84 -4l338 -697l-393 -776q-16 -4 -37 -4h-37q-40 0 -78 4zM612 776l340 697q32 4 64 4q40 0 86 -4l-342 -689l399 -784q-36 -4 -66 -4q-49 0 -85 4z" />
<glyph unicode="Y" horiz-adv-x="1175" d="M49 1473q24 4 60 4q74 0 102 -4l385 -779l379 779q32 4 63 4q64 0 88 -4l-462 -926v-547q-28 -4 -72 -4t-70 4v547z" />
<glyph unicode="Z" horiz-adv-x="1136" d="M29 16l833 1327h-715q-4 20 -4 64t4 66h936l11 -15l-840 -1329h772q4 -20 4 -68q0 -41 -4 -61h-987z" />
<glyph unicode="[" horiz-adv-x="616" d="M102 -344v1876h406q4 -28 4 -59q0 -38 -4 -58h-268v-1644h268q4 -24 4 -56q0 -35 -4 -59h-406z" />
<glyph unicode="\" horiz-adv-x="841" d="M94 1473q37 6 69 6t62 -6l498 -1473q-31 -6 -64.5 -6t-64.5 6z" />
<glyph unicode="]" horiz-adv-x="616" d="M104 -256q0 14 5 27h268v1644h-268q-5 13 -5 58v31q0 14 5 28h405v-1876h-405q-5 15 -5 59v29z" />
<glyph unicode="^" horiz-adv-x="1128" d="M145 762l336 711q27 6 74 6t90 -6l336 -711h-135l-285 608l-280 -608h-136z" />
<glyph unicode="_" horiz-adv-x="1036" d="M2 -105q0 32 8 56h1020q6 -29 6 -57q0 -29 -6 -56h-1020q-8 25 -8 57z" />
<glyph unicode="`" horiz-adv-x="1024" d="M297 1481q46 4 83 4h60q23 0 45 -4l240 -267q-37 -6 -76 -6t-76 6z" />
<glyph unicode="a" horiz-adv-x="1050" d="M113 297q0 162 119 255q115 89 308 89q93 0 216 -14v63q0 260 -252 260q-147 0 -271 -39q-24 43 -24 119q129 39 310 39q372 0 372 -360v-691q-221 -43 -369 -43q-409 0 -409 322zM248 301q0 -172 182 -199q49 -8 131 -8t195 23v391q-123 14 -187 14q-154 0 -237.5 -57 t-83.5 -164z" />
<glyph unicode="b" horiz-adv-x="1208" d="M180 31v1474q24 4 67.5 4t67.5 -4v-606q43 66 124 118t193.5 52t192.5 -29.5t137 -93.5q119 -134 119 -398.5t-149.5 -418.5t-431.5 -154q-171 0 -320 56zM315 125q91 -31 192 -31t176 26.5t131 81.5q124 123 124 345q0 399 -299 399q-123 0 -212 -72q-112 -89 -112 -266 v-483z" />
<glyph unicode="c" horiz-adv-x="983" d="M121 522q0 241 129 390q136 157 379 157q159 0 260 -37q0 -57 -23 -117q-102 35 -215.5 35t-182.5 -31.5t-115 -88.5q-91 -114 -91 -321.5t105.5 -311t285.5 -103.5q115 0 219 37q20 -41 33 -113q-122 -43 -262 -43q-256 0 -389 140.5t-133 406.5z" />
<glyph unicode="d" horiz-adv-x="1198" d="M127 500q0 267 141 418t386 151q128 0 229 -37v473q24 4 67.5 4t67.5 -4v-1480q-158 -50 -312.5 -50t-253 27t-170.5 88q-155 134 -155 410zM268 504q0 -408 389 -408q139 0 226 25v784q-110 43 -221 43t-181.5 -32.5t-118.5 -91.5q-94 -116 -94 -320z" />
<glyph unicode="e" horiz-adv-x="1132" d="M123 516q0 241 111 391q121 162 356 162q201 0 316 -133q55 -62 82.5 -149t27.5 -166t-4 -119h-746q0 -209 96.5 -307.5t288.5 -98.5q132 0 275 49q19 -43 24 -114q-122 -56 -285 -56t-260.5 40t-160.5 112q-121 140 -121 389zM270 614h611q0 226 -158 308 q-55 28 -133 28q-143 0 -223 -88t-97 -248z" />
<glyph unicode="f" horiz-adv-x="716" d="M72 985q0 39 4 59h178v93q0 193 85 289t269 96q69 0 140 -17q-6 -55 -23 -116q-63 14 -115.5 14t-93.5 -11.5t-68 -41.5q-59 -62 -59 -220v-86h287q4 -20 4 -59q0 -35 -4 -55h-287v-930q-24 -4 -67.5 -4t-67.5 4v930h-178q-4 20 -4 55z" />
<glyph unicode="g" horiz-adv-x="1097" d="M82 -238q0 78 45 150t117 106q-92 59 -92 147.5t37.5 141.5t101.5 96q-158 99 -158 302q0 159 103 257q110 107 282 107t281 -78q132 53 270 53q8 -31 8 -68.5t-8 -68.5h-195q60 -93 60 -191.5t-31 -166.5t-85 -114q-112 -95 -283 -95q-88 0 -154 22q-57 -37 -81 -70.5 t-24 -65t6.5 -50t25.5 -34.5q43 -33 145 -33l266 -5q180 -4 257 -74.5t77 -187.5q0 -158 -156 -255t-395 -97q-420 0 -420 272zM215 -221q0 -135 178 -159q53 -7 113 -7q190 0 296.5 64.5t106.5 148.5t-53 116.5t-174 34.5l-254 5h-7q-91 0 -147 -54q-59 -57 -59 -149z M276 705q0 -106 62.5 -179t196.5 -73q133 0 196.5 72.5t63.5 179.5q0 106 -63.5 178.5t-196.5 72.5t-196 -72.5t-63 -178.5z" />
<glyph unicode="h" horiz-adv-x="1171" d="M180 0v1505q24 4 67.5 4t67.5 -4v-647q77 142 227 192q54 19 120 19q350 0 350 -410v-659q-24 -4 -67.5 -4t-67.5 4v618q0 174 -57.5 250t-166.5 76q-151 0 -241 -106q-97 -113 -97 -312v-526q-24 -4 -66.5 -4t-68.5 4z" />
<glyph unicode="i" horiz-adv-x="559" d="M109 985q0 39 4 59h266v-1044q-24 -4 -67.5 -4t-67.5 4v930h-131q-4 20 -4 55zM172 1372q0 67 4 101q36 4 71 4q69 0 101 -4q4 -32 4 -66q0 -69 -4 -107q-32 -4 -84 -4t-88 4q-4 36 -4 72z" />
<glyph unicode="j" horiz-adv-x="569" d="M-68 -346q13 74 31 110q47 -20 93 -20t76 2t56 16q66 36 66 136v1032h-131q-4 20 -4 55q0 39 4 59h266v-1132q0 -226 -180 -274q-51 -13 -109 -13q-98 0 -168 29zM182 1372q0 67 4 101q36 4 71 4q69 0 101 -4q4 -32 4 -66q0 -69 -4 -107q-32 -4 -84 -4t-88 4q-4 36 -4 72 z" />
<glyph unicode="k" horiz-adv-x="1028" d="M180 0v1505q24 4 67.5 4t67.5 -4v-1505q-24 -4 -66.5 -4t-68.5 4zM401 539l375 505q38 7 78 7t80 -7l-373 -491l440 -553q-37 -6 -77.5 -6t-83.5 6z" />
<glyph unicode="l" horiz-adv-x="571" d="M180 211v1294q24 4 67.5 4t67.5 -4v-1263q0 -132 85 -143q22 -3 55 -3t73 10q16 -39 21 -106q-52 -18 -113 -18t-104 9t-77 35q-75 56 -75 185z" />
<glyph unicode="m" horiz-adv-x="1712" d="M180 0v1044q40 5 59 5q37 0 64 -5q8 -74 8 -180q64 138 204 188q50 17 111.5 17t104.5 -14.5t75 -40.5q53 -42 93 -137q62 88 108 123q93 69 201 69q182 0 263 -104.5t81 -298.5v-666q-32 -6 -66 -6t-69 6v618q0 326 -217 326q-126 0 -196 -98q-68 -93 -68 -234v-612 q-24 -4 -67.5 -4t-67.5 4v645q0 309 -195 309q-127 0 -209 -120q-82 -121 -82 -310v-524q-24 -4 -66.5 -4t-68.5 4z" />
<glyph unicode="n" horiz-adv-x="1171" d="M180 0v1044q40 5 59 5q37 0 64 -5q8 -74 8 -188q76 141 231 194q58 19 126 19q344 0 344 -410v-659q-24 -4 -67.5 -4t-67.5 4v618q0 174 -54.5 250t-163.5 76q-150 0 -244 -112q-100 -118 -100 -316v-516q-24 -4 -66.5 -4t-68.5 4z" />
<glyph unicode="o" horiz-adv-x="1175" d="M121 522q0 244 115 390q126 157 352 157q225 0 349 -157q118 -150 118 -390q0 -238 -118 -389q-124 -158 -349 -158q-227 0 -352 158q-115 146 -115 389zM262 522q0 -199 81 -313.5t245 -114.5t244.5 115t80.5 313q0 199 -80.5 313.5t-244.5 114.5t-245 -114.5 t-81 -313.5z" />
<glyph unicode="p" horiz-adv-x="1206" d="M180 -483v1527q30 5 62 5q41 0 61 -5l12 -143q43 66 124 117t193.5 51t192.5 -29.5t137 -93.5q119 -134 119 -391q0 -273 -144 -425q-147 -155 -411 -155q-114 0 -211 33v-491q-24 -4 -66.5 -4t-68.5 4zM315 133q97 -37 204.5 -37t179 25.5t125.5 80.5q114 119 114 345 q0 401 -299 401q-124 0 -212 -72q-112 -93 -112 -268v-475z" />
<glyph unicode="q" horiz-adv-x="1196" d="M125 492q0 265 151 422q149 155 398 155q189 0 342 -47v-1505q-24 -4 -67.5 -4t-67.5 4v489q-109 -31 -230 -31q-526 0 -526 517zM266 477q0 -192 107 -291q100 -92 297 -92q109 0 211 35v801q-102 20 -202.5 20t-179.5 -34.5t-131 -97.5q-102 -127 -102 -341z" />
<glyph unicode="r" horiz-adv-x="716" d="M180 0v1044q40 5 59 5q37 0 64 -5q8 -74 8 -178q98 181 310 181h21q11 0 26 -3q6 -35 6 -66.5t-6 -62.5q-24 3 -45 3q-139 0 -223.5 -88.5t-84.5 -292.5v-537q-24 -4 -66.5 -4t-68.5 4z" />
<glyph unicode="s" horiz-adv-x="925" d="M113 20q12 62 39 123q112 -45 244.5 -45t204 54.5t71.5 122t-21.5 103.5t-57.5 60.5t-81 40t-94 31.5t-99.5 36.5t-89.5 52.5q-86 71 -86 192.5t91.5 199.5t281.5 78q155 0 270 -45q-10 -59 -28 -117q-132 43 -252.5 43t-172.5 -44t-52 -115q0 -99 132 -148 q38 -14 87 -29.5t105.5 -37t102.5 -56.5q105 -80 105 -221q0 -149 -113 -237q-110 -87 -288 -87q-193 0 -299 45z" />
<glyph unicode="t" horiz-adv-x="694" d="M45 989q0 35 4 55h178v197l127 125h8v-322h283q4 -20 4 -55q0 -39 -4 -59h-283v-680q0 -131 98 -149q27 -5 77.5 -5t103.5 19q14 -53 21 -115q-74 -23 -182 -23t-180.5 62.5t-72.5 204.5v686h-178q-4 20 -4 59z" />
<glyph unicode="u" horiz-adv-x="1177" d="M172 449v595q30 5 72.5 5t62.5 -5v-587q0 -211 89 -292q78 -71 226 -71t240 27v923q30 5 72.5 5t62.5 -5v-1017q-197 -52 -358 -52q-98 0 -183 19q-176 38 -247 215q-37 92 -37 240z" />
<glyph unicode="v" horiz-adv-x="1067" d="M53 1044q30 5 62 5q74 0 94 -5l330 -903l335 903q30 5 70 5q48 0 70 -5l-416 -1044q-31 -6 -63 -6q-33 0 -66 6z" />
<glyph unicode="w" horiz-adv-x="1540" d="M68 1044q30 5 58 5q69 0 89 -5l231 -888l259 888q40 5 67 5h44q18 0 34 -5l258 -876l231 876q30 5 64 5q48 0 70 -5l-302 -1044q-37 -6 -73.5 -6t-69.5 6l-252 864l-264 -864q-37 -6 -74 -6t-69 6z" />
<glyph unicode="x" horiz-adv-x="1003" d="M41 0l311 545l-274 499q39 6 77.5 6t75.5 -6l263 -499l-304 -545q-35 -6 -72.5 -6t-76.5 6zM510 545l262 499q43 6 80.5 6t69.5 -6l-267 -489l308 -555q-41 -6 -79 -6t-71 6z" />
<glyph unicode="y" horiz-adv-x="1054" d="M33 1044q30 5 62 5q73 0 93 -5l347 -1015l339 1015q30 5 70 5q48 0 70 -5l-459 -1353q-37 -113 -104.5 -158t-153 -45t-166.5 25q0 63 31 114q53 -20 117.5 -20t100.5 28.5t62 106.5l84 254h-39q-53 0 -77 4z" />
<glyph unicode="z" horiz-adv-x="952" d="M63 33l609 897h-547q-4 20 -4 55q0 39 4 59h754l8 -26l-608 -903h575q4 -20 4 -60q0 -35 -4 -55h-784z" />
<glyph unicode="{" horiz-adv-x="811" d="M102 592v8q127 71 170 143q50 85 50 226v157q0 209 85 309.5t295 100.5q5 -35 5 -59q0 -38 -5 -56q-157 0 -206 -82q-41 -70 -41 -268v-22q0 -205 -37 -301q-35 -94 -137 -152q102 -58 137 -152q37 -96 37 -301v-22q0 -198 41 -268q49 -82 206 -82q5 -30 5 -56 q0 -39 -5 -59q-211 0 -295.5 100.5t-84.5 309.5v157q0 208 -118 303q-42 33 -102 66z" />
<glyph unicode="|" horiz-adv-x="669" d="M266 -344v1933q28 4 68.5 4t68.5 -4v-1933q-28 -4 -69.5 -4t-67.5 4z" />
<glyph unicode="}" horiz-adv-x="811" d="M104 -285q0 34 5 56q154 0 205 82q42 69 42 268v22q0 205 36 301q36 94 138 152q-102 58 -138 152q-36 96 -36 301v22q0 199 -42 268q-51 82 -205 82q-5 25 -5 56q0 36 5 59q211 0 295.5 -100.5t84.5 -309.5v-157q0 -146 49 -226q46 -74 171 -143v-8q-126 -70 -171 -143 q-49 -80 -49 -226v-157q0 -209 -85 -309.5t-295 -100.5q-5 30 -5 59z" />
<glyph unicode="~" horiz-adv-x="978" d="M49 815q37 46 95 75q96 46 156 46t106.5 -13.5t92.5 -28.5q123 -40 185 -40q95 0 178 80q45 -41 68 -109q-111 -98 -244 -98q-62 0 -146.5 27.5t-131 41t-89.5 13.5q-108 0 -198 -86q-47 33 -72 92z" />
<glyph unicode="&#xa1;" horiz-adv-x="579" d="M197 964q0 44 6 87q43 6 87 6t87 -6q6 -43 6 -87t-6 -87q-94 -13 -174 0q-6 43 -6 87zM211 -422l8 1053q32 4 66 4q31 0 63 -4l8 -1053q-32 -4 -68.5 -4t-76.5 4z" />
<glyph unicode="&#xa2;" d="M244 522q0 223 110 368q116 151 330 175v242q57 12 117 0v-240q112 -7 211 -35q0 -57 -23 -117q-103 35 -216 35t-182 -31.5t-115 -88.5q-91 -114 -91 -321.5t105.5 -311t285.5 -103.5q115 0 219 37q20 -41 33 -113q-98 -33 -227 -43v-217q-50 -14 -117 0v222 q-217 23 -328.5 161t-111.5 381z" />
<glyph unicode="&#xa3;" d="M221 705q0 39 4 59h144q-37 146 -37 253t25.5 188t78.5 141q113 129 332 129q162 0 283 -50q-6 -51 -33 -118q-103 45 -215.5 45t-167.5 -24.5t-90 -67.5q-68 -84 -68 -211t39 -285h432q4 -20 4 -59q0 -36 -4 -56h-405q26 -138 26 -223.5t-25.5 -171.5t-64.5 -125h578 q4 -24 4 -64.5t-4 -64.5h-811l-6 20l47 48q139 139 139 370q0 93 -29 211h-172q-4 20 -4 56z" />
<glyph unicode="&#xa4;" d="M94 301l166 164q-82 111 -82 255.5t88 262.5l-172 172q30 65 94 90l170 -172q115 80 254 80q145 0 256 -82l174 174q55 -30 93 -86l-174 -176q88 -118 88 -262.5t-86 -255.5l167 -168q-29 -53 -83 -92l-175 170q-109 -84 -260 -84q-149 0 -260 84l-168 -166 q-67 31 -90 92zM311 721q0 -131 85 -220q87 -91 216 -91q128 0 217 91q86 88 86 220q0 134 -86 222q-89 91 -217 91q-129 0 -216 -91q-85 -89 -85 -222z" />
<glyph unicode="&#xa5;" d="M76 1448q24 4 60 4q72 0 102 -4l385 -655l378 655q32 4 63 4q65 0 89 -4l-393 -682h338q6 -29 6 -58.5t-6 -60.5h-408v-207h408q6 -29 6 -58.5t-6 -59.5h-408v-322q-28 -4 -72.5 -4t-68.5 4v322h-406q-8 25 -8 58.5t8 59.5h406v207h-406q-8 25 -8 59t8 60h334z" />
<glyph unicode="&#xa6;" horiz-adv-x="669" d="M266 336q28 4 68.5 4t68.5 -4v-680q-28 -4 -69.5 -4t-67.5 4v680zM266 909v680q28 4 68.5 4t68.5 -4v-680q-28 -4 -69.5 -4t-67.5 4z" />
<glyph unicode="&#xa7;" horiz-adv-x="1136" d="M141 29q18 79 37 116q141 -57 300 -57t246 48t87 126q0 95 -132 146q-38 14 -79 26l-213 70q-203 67 -235 182q-11 37 -11 94q0 100 107 224q-64 64 -64 174q0 127 119 210q116 82 303 82q106 0 178 -16t144 -39q0 -49 -35 -117q-57 23 -118.5 40.5t-172.5 17.5 t-192.5 -42t-81.5 -130q0 -78 54 -115q43 -30 136 -57l260 -80q92 -29 153.5 -82t61.5 -171.5t-110 -238.5q67 -72 67 -157t-32.5 -139t-93.5 -93q-127 -80 -347 -80q-190 0 -336 58zM276 789.5q0 -68.5 38 -104.5t116 -64l264 -86q14 -6 29.5 -11.5t40.5 -15.5 q57 47 82 114q10 27 10 69q0 82 -162 132l-254 82q-53 18 -84 33q-80 -80 -80 -148.5z" />
<glyph unicode="&#xa8;" horiz-adv-x="1024" d="M227 1342q0 44 6 88q39 6 82 6t84 -6q13 -94 0 -175q-41 -6 -84 -6t-82 6q-6 43 -6 87zM625 1255q-13 93 0 175q39 6 82 6t84 -6q6 -43 6 -87.5t-6 -87.5q-41 -6 -84 -6t-82 6z" />
<glyph unicode="&#xa9;" horiz-adv-x="1769" d="M125 735q0 162 55.5 302.5t154.5 241.5t239.5 159.5t310.5 58.5q338 0 549 -217q211 -216 211 -545t-211 -543q-99 -102 -239 -160.5t-310 -58.5t-310.5 58.5t-239.5 160.5q-210 215 -210 543zM264 735q0 -272 166 -453q173 -188 455 -188q283 0 455 188q165 181 165 453 q0 273 -165 454q-171 187 -455 187q-283 0 -455 -187q-166 -181 -166 -454zM512 729q0 197 110 321q110 126 289 126q104 0 203 -29q-8 -68 -29 -109q-82 23 -167 23q-139 0 -207 -90t-68 -243t74 -234.5t207 -81.5q87 0 163 39q24 -43 43 -103q-100 -49 -204.5 -49 t-179 30.5t-126.5 88.5q-108 117 -108 311z" />
<glyph unicode="&#xaa;" horiz-adv-x="1024" d="M127 854q0 135 100.5 208t259.5 73q89 0 172 -11v39q0 102 -53 147.5t-159.5 45.5t-217.5 -33q-20 32 -20 113q103 30 257 30q318 0 318 -288v-549q-195 -33 -341 -33t-231 61.5t-85 196.5zM250 858q0 -128 147 -146q41 -5 114 -5t148 14v291q-73 10 -171.5 10t-168 -43 t-69.5 -121z" />
<glyph unicode="&#xab;" horiz-adv-x="1230" d="M113 547l358 452q37 6 76 7q39 0 80 -7l-351 -448l351 -457q-37 -6 -77 -6t-79 6zM609 547l358 452q37 6 76 7q39 0 80 -7l-351 -448l351 -457q-37 -6 -77 -6t-79 6z" />
<glyph unicode="&#xac;" d="M176 674q0 51 4 71h840v-557q-20 -4 -68 -4q-51 0 -71 4v418h-701q-4 20 -4 68z" />
<glyph unicode="&#xad;" horiz-adv-x="722" d="M88 582q0 49 4 69h539q4 -20 4 -69q0 -48 -4 -68h-539q-4 20 -4 68z" />
<glyph unicode="&#xae;" horiz-adv-x="1769" d="M125 735q0 162 55.5 302.5t154.5 241.5t239.5 159.5t310.5 58.5q338 0 549 -217q211 -216 211 -545t-211 -543q-99 -102 -239 -160.5t-310 -58.5t-310.5 58.5t-239.5 160.5q-210 215 -210 543zM264 735q0 -272 166 -453q173 -188 455 -188q283 0 455 188q165 181 165 453 q0 273 -165 454q-171 187 -455 187q-283 0 -455 -187q-166 -181 -166 -454zM649 352v791q94 12 175 12t136.5 -11t101.5 -39q103 -63 103 -192q0 -81 -53 -149q-39 -51 -106 -82l239 -328q-29 -4 -45 -4h-55t-37 2l-270 369l47 18q159 64 159 168q0 70 -54 105t-114.5 35 t-105.5 -7v-688q-20 -4 -61 -4q-40 0 -60 4z" />
<glyph unicode="&#xaf;" horiz-adv-x="1024" d="M227 1346q0 37 4 57h562q4 -20 4 -57q0 -40 -4 -56h-562q-4 16 -4 56z" />
<glyph unicode="&#xb0;" horiz-adv-x="745" d="M86 1196q0 122 87 207q86 84 206 84t206 -84q87 -85 87 -207t-87 -207q-86 -84 -206 -84t-206 84q-87 85 -87 207zM207 1196q0 -78 48 -129t124 -51t124 51t48 129t-48 129t-124 51t-124 -51t-48 -129z" />
<glyph unicode="&#xb1;" d="M174 72q0 50 4 72h873q4 -20 4 -72q0 -46 -4 -68h-873q-4 20 -4 68zM193 684v68q0 16 4 32h352v379q32 4 65 4q32 0 68 -4v-379h352q4 -32 4 -65q0 -34 -4 -68h-352v-379q-18 -4 -34 -4h-58.5t-40.5 4v379h-352q-4 16 -4 33z" />
<glyph unicode="&#xb2;" horiz-adv-x="921" d="M158 645l254 256q80 80 128 160t48 145q0 125 -193 125q-77 0 -176 -31q-11 21 -26 111q95 37 228.5 37t216.5 -61.5t83 -165t-46 -188.5t-140 -177l-117 -115h356v-112h-610z" />
<glyph unicode="&#xb3;" horiz-adv-x="921" d="M174 635l31 110q153 -48 280 -21q88 18 125 84q19 32 19 75t-17.5 72.5t-45.5 48.5q-54 36 -140 36h-37q-14 0 -33 -4l-8 13l195 292h-314v107h498l10 -21l-207 -303q119 -11 182 -86q56 -66 56 -140.5t-27.5 -127.5t-76.5 -90q-102 -76 -263 -76q-110 0 -227 31z" />
<glyph unicode="&#xb4;" horiz-adv-x="1024" d="M299 1214l240 267q23 4 46 4h47q51 0 95 -4l-276 -267q-37 -6 -76 -6t-76 6z" />
<glyph unicode="&#xb5;" horiz-adv-x="1245" d="M180 -483v1527q30 5 72.5 5t62.5 -5v-548q0 -188 67 -294t224 -106q204 0 292 178q32 64 32 162v608q30 5 72.5 5t62.5 -5v-1044q-24 -4 -47 -4h-44q-20 0 -32 4q-8 68 -12 143q-43 -66 -124 -117t-210 -51q-186 0 -281 138v-596q-24 -4 -66.5 -4t-68.5 4z" />
<glyph unicode="&#xb6;" horiz-adv-x="1126" d="M102 1040q0 243 136 344q134 101 471 101v-1497q-75 0 -127 12v641h-27q-205 0 -327 98q-126 102 -126 301zM881 -12v1497q73 0 127 -12v-1473q-54 -12 -127 -12z" />
<glyph unicode="&#xb7;" horiz-adv-x="419" d="M117 566q0 44 6 87q43 6 87 6t87 -6q6 -43 6 -87t-6 -87q-43 -6 -87 -6t-87 6q-6 43 -6 87z" />
<glyph unicode="&#xb8;" horiz-adv-x="1024" d="M299 -467q0 66 23 100q70 -24 127 -24q151 0 151 96q0 82 -145 82q-32 0 -107 -12l-10 8l100 266h119l-72 -174q10 2 19 2h20q104 0 154.5 -49t50.5 -136t-75.5 -136.5t-185.5 -49.5t-169 27z" />
<glyph unicode="&#xb9;" horiz-adv-x="921" d="M182 1294l377 162h25v-717h202q5 -35 5 -55t-5 -55h-553q-6 27 -6 54.5t6 55.5h218v547l-220 -90q-32 28 -49 98z" />
<glyph unicode="&#xba;" horiz-adv-x="1024" d="M139 1042q0 188 97 306q101 125 278 125t278 -125q95 -116 95 -306q0 -301 -211 -404q-70 -34 -162 -34q-175 0 -278 126q-97 118 -97 312zM276 1040q0 -148 58.5 -231.5t178.5 -83.5t178.5 84t58.5 231t-58.5 231.5t-178.5 84.5t-178.5 -84t-58.5 -232z" />
<glyph unicode="&#xbb;" d="M109 94l350 449l-350 456q37 6 75 7q39 0 80 -7l359 -452l-359 -453q-37 -6 -77 -6t-78 6zM603 94l350 449l-350 456q37 6 75 7q39 0 80 -7l359 -452l-359 -453q-37 -6 -77 -6t-78 6z" />
<glyph unicode="&#xbc;" horiz-adv-x="2150" d="M135 1294l377 162h25v-717h202q5 -35 5 -55t-5 -55h-553q-6 27 -6 54.5t6 55.5h218v547l-220 -90q-32 28 -49 98zM533 0l991 1448q32 4 60 4q46 0 88 -4l-990 -1448q-20 -4 -39 -4h-65.5t-44.5 4zM1291 188l342 664q59 -10 116 -37l-272 -529h260v176q61 12 121 0v-176 h106q6 -23 6.5 -61.5t-6.5 -52.5h-106v-168q-32 -4 -57.5 -4t-63.5 4v168h-434z" />
<glyph unicode="&#xbd;" horiz-adv-x="2150" d="M135 1294l377 162h25v-717h202q5 -35 5 -55t-5 -55h-553q-6 27 -6 54.5t6 55.5h218v547l-220 -90q-32 28 -49 98zM496 0l991 1448q32 4 60 4q46 0 88 -4l-990 -1448q-20 -4 -39 -4h-65.5t-44.5 4zM1350 20l254 256q80 80 128 160t48 145q0 125 -193 125q-77 0 -176 -31 q-11 21 -26 111q95 37 228.5 37t216.5 -61.5t83 -165t-46 -188.5t-140 -177l-117 -115h356v-112h-610z" />
<glyph unicode="&#xbe;" horiz-adv-x="2150" d="M168 635l31 110q153 -48 280 -21q88 18 125 84q19 32 19 75t-17.5 72.5t-45.5 48.5q-54 36 -140 36h-37q-14 0 -33 -4l-8 13l195 292h-314v107h498l10 -21l-207 -303q119 -11 182 -86q56 -66 56 -140.5t-27.5 -127.5t-76.5 -90q-102 -76 -263 -76q-110 0 -227 31zM551 0 l991 1448q32 4 60 4q46 0 88 -4l-990 -1448q-20 -4 -39 -4h-65.5t-44.5 4zM1319 207l342 664q59 -10 116 -37l-272 -529h260v176q61 12 121 0v-176h106q6 -23 6.5 -61.5t-6.5 -52.5h-106v-168q-32 -4 -57.5 -4t-63.5 4v168h-434z" />
<glyph unicode="&#xbf;" horiz-adv-x="993" d="M135 -20q0 185 151 308q98 79 222 118v229q36 4 72 4q39 0 67 -4v-318l-69 -22q-200 -60 -266 -193q-25 -51 -25 -118q0 -139 98 -210t256 -71q96 0 153.5 14.5t112.5 32.5q17 -40 39 -123q-158 -51 -325 -51q-240 0 -363 108.5t-123 295.5zM481 964q0 44 6 87 q43 6 87.5 6t87.5 -6q6 -43 6 -87t-6 -87q-94 -13 -175 0q-6 43 -6 87z" />
<glyph unicode="&#xc0;" horiz-adv-x="1232" d="M41 0l491 1473q28 4 68 4q72 0 100 -4l492 -1473q-24 -4 -60 -4q-62 0 -92 4l-122 375h-607l-116 -375q-32 -4 -65 -4q-65 0 -89 4zM328 1821q45 6 97 6t100 -6l227 -228q-37 -6 -80 -6t-80 6zM352 506h525l-265 819z" />
<glyph unicode="&#xc1;" horiz-adv-x="1232" d="M41 0l491 1473q28 4 68 4q72 0 100 -4l492 -1473q-24 -4 -60 -4q-62 0 -92 4l-122 375h-607l-116 -375q-32 -4 -65 -4q-65 0 -89 4zM352 506h525l-265 819zM459 1593l227 228q45 6 97.5 6t99.5 -6l-264 -228q-37 -6 -80 -6t-80 6z" />
<glyph unicode="&#xc2;" horiz-adv-x="1232" d="M41 0l491 1473q28 4 68 4q72 0 100 -4l492 -1473q-24 -4 -60 -4q-62 0 -92 4l-122 375h-607l-116 -375q-32 -4 -65 -4q-65 0 -89 4zM282 1593l258 228q37 6 74 6t78 -6l252 -228q-27 -6 -78 -6q-52 0 -88 6l-162 144l-164 -144q-49 -6 -76 -6q-62 0 -94 6zM352 506h525 l-265 819z" />
<glyph unicode="&#xc3;" horiz-adv-x="1232" d="M41 0l491 1473q28 4 68 4q72 0 100 -4l492 -1473q-24 -4 -60 -4q-62 0 -92 4l-122 375h-607l-116 -375q-32 -4 -65 -4q-65 0 -89 4zM267 1753q90 96 188 96q61 0 143 -40t124 -57t83 -17t68.5 17t64.5 52q32 -45 51 -94q-96 -90 -190 -90q-45 0 -89 17.5t-88 38t-85 38 t-84 17.5t-71.5 -18.5t-63.5 -49.5q-35 41 -51 90zM352 506h525l-265 819z" />
<glyph unicode="&#xc4;" horiz-adv-x="1232" d="M41 0l491 1473q28 4 68 4q72 0 100 -4l492 -1473q-24 -4 -60 -4q-62 0 -92 4l-122 375h-607l-116 -375q-32 -4 -65 -4q-65 0 -89 4zM307 1704q0 45 6 92q45 6 91 6t87 -6q6 -47 6 -92t-6 -90q-41 -6 -87 -6t-91 6q-6 45 -6 90zM352 506h525l-265 819zM735 1704q0 45 6 92 q39 6 85 6t93 -6q6 -47 6 -92t-6 -90q-47 -6 -93 -6t-85 6q-6 45 -6 90z" />
<glyph unicode="&#xc5;" horiz-adv-x="1232" d="M41 0l489 1466q-70 25 -109.5 83.5t-39.5 122t16.5 105.5t46.5 73q68 67 170 67q101 0 168 -67q66 -66 66 -153t-40 -145.5t-108 -83.5l492 -1468q-24 -4 -60 -4q-62 0 -92 4l-122 375h-607l-116 -375q-32 -4 -65 -4q-65 0 -89 4zM352 506h525l-265 819zM494 1686 q0 -59 30.5 -98.5t89.5 -39.5t90 39t31 99q0 59 -31 98t-90 39t-89.5 -39t-30.5 -98z" />
<glyph unicode="&#xc6;" horiz-adv-x="1835" d="M-35 0l895 1473h864q5 -30 5 -63.5t-5 -66.5h-647v-538h520q5 -30 5 -64.5t-5 -64.5h-520v-547h666q4 -24 4 -64.5t-4 -64.5h-807v377h-584l-221 -377q-47 -6 -88 -6t-78 6zM428 506h508v848h-8z" />
<glyph unicode="&#xc7;" horiz-adv-x="1265" d="M131 721q0 363 183 573q178 203 489 203q181 0 340 -49q-6 -53 -33 -121q-27 8 -54.5 16.5t-62.5 14.5q-82 14 -195.5 14t-209.5 -44t-164 -128q-141 -174 -141 -479q0 -304 155 -468q142 -151 379 -151q186 0 307 66q38 -74 47 -119q-148 -74 -370 -74l-39 -98 q10 2 18 2h19q104 0 155.5 -50t51.5 -137t-77 -136.5t-187 -49.5t-169 27q0 66 23 102q70 -24 127 -24q151 0 151 94q0 82 -145 82q-34 0 -106 -12l-11 8l76 201q-258 37 -404 224q-153 196 -153 513z" />
<glyph unicode="&#xc8;" horiz-adv-x="1105" d="M207 0v1473h788q4 -24 4 -64t-4 -66h-647v-497h520q4 -24 4 -64.5t-4 -64.5h-520v-588h666q4 -24 4 -64.5t-4 -64.5h-807zM313 1821q45 6 97 6t100 -6l227 -228q-37 -6 -80 -6t-80 6z" />
<glyph unicode="&#xc9;" horiz-adv-x="1105" d="M207 0v1473h788q4 -24 4 -64t-4 -66h-647v-497h520q4 -24 4 -64.5t-4 -64.5h-520v-588h666q4 -24 4 -64.5t-4 -64.5h-807zM451 1593l227 228q45 6 97.5 6t99.5 -6l-264 -228q-37 -6 -80 -6t-80 6z" />
<glyph unicode="&#xca;" horiz-adv-x="1105" d="M207 0v1473h788q4 -24 4 -64t-4 -66h-647v-497h520q4 -24 4 -64.5t-4 -64.5h-520v-588h666q4 -24 4 -64.5t-4 -64.5h-807zM264 1593l258 228q37 6 74 6t78 -6l252 -228q-27 -6 -78 -6q-52 0 -88 6l-162 144l-164 -144q-49 -6 -76 -6q-62 0 -94 6z" />
<glyph unicode="&#xcb;" horiz-adv-x="1105" d="M207 0v1473h788q4 -24 4 -64t-4 -66h-647v-497h520q4 -24 4 -64.5t-4 -64.5h-520v-588h666q4 -24 4 -64.5t-4 -64.5h-807zM291 1704q0 45 6 92q45 6 91 6t87 -6q6 -47 6 -92t-6 -90q-41 -6 -87 -6t-91 6q-6 45 -6 90zM719 1704q0 45 6 92q39 6 85 6t93 -6q6 -47 6 -92 t-6 -90q-47 -6 -93 -6t-85 6q-6 45 -6 90z" />
<glyph unicode="&#xcc;" horiz-adv-x="555" d="M6 1821q45 6 97 6t100 -6l227 -228q-37 -6 -80 -6t-80 6zM207 0v1473q28 4 70.5 4t70.5 -4v-1473q-28 -4 -72.5 -4t-68.5 4z" />
<glyph unicode="&#xcd;" horiz-adv-x="555" d="M131 1593l227 228q45 6 97.5 6t99.5 -6l-264 -228q-37 -6 -80 -6t-80 6zM207 0v1473q28 4 70.5 4t70.5 -4v-1473q-28 -4 -72.5 -4t-68.5 4z" />
<glyph unicode="&#xce;" horiz-adv-x="555" d="M-51 1593l258 228q37 6 74 6t78 -6l252 -228q-27 -6 -78 -6q-52 0 -88 6l-162 144l-164 -144q-49 -6 -76 -6q-62 0 -94 6zM207 0v1473q28 4 70.5 4t70.5 -4v-1473q-28 -4 -72.5 -4t-68.5 4z" />
<glyph unicode="&#xcf;" horiz-adv-x="555" d="M-28 1704q0 45 6 92q45 6 91 6t87 -6q6 -47 6 -92t-6 -90q-41 -6 -87 -6t-91 6q-6 45 -6 90zM207 0v1473q28 4 70.5 4t70.5 -4v-1473q-28 -4 -72.5 -4t-68.5 4zM400 1704q0 45 6 92q39 6 85 6t93 -6q6 -47 6 -92t-6 -90q-47 -6 -93 -6t-85 6q-6 45 -6 90z" />
<glyph unicode="&#xd0;" horiz-adv-x="1462" d="M43 741q0 36 4 58h191v674q159 22 346 22t329 -52t235 -149q183 -192 183 -555q0 -764 -753 -764q-178 0 -340 25v686h-191q-4 16 -4 55zM379 123q111 -12 221 -12t224 30.5t194 104.5q166 152 166 484t-163 481t-452 149q-132 0 -190 -10v-551h366q5 -25 5 -58 q0 -42 -5 -55h-366v-563z" />
<glyph unicode="&#xd1;" horiz-adv-x="1409" d="M207 0v1473q28 4 78 4q47 0 75 -4l705 -1233v1233q28 4 68.5 4t68.5 -4v-1473q-24 -4 -59 -4q-66 0 -94 4l-705 1223v-1223q-28 -4 -70.5 -4t-66.5 4zM345 1753q90 96 188 96q61 0 143 -40t124 -57t83 -17t68.5 17t64.5 52q32 -45 51 -94q-96 -90 -190 -90 q-45 0 -89 17.5t-88 38t-85 38t-84 17.5t-71.5 -18.5t-63.5 -49.5q-35 41 -51 90z" />
<glyph unicode="&#xd2;" horiz-adv-x="1478" d="M131 737q0 342 151 546q157 214 457 214q299 0 458 -214q151 -203 151 -546t-151 -547q-158 -215 -458 -215t-457 215q-151 205 -151 547zM279 737q0 -451 254 -587q87 -46 206 -46q227 0 349 177q112 164 112 456q0 448 -256 585q-86 46 -205 46q-231 0 -349 -175 q-111 -165 -111 -456zM442 1821q45 6 97 6t100 -6l227 -228q-37 -6 -80 -6t-80 6z" />
<glyph unicode="&#xd3;" horiz-adv-x="1478" d="M131 737q0 342 151 546q157 214 457 214q299 0 458 -214q151 -203 151 -546t-151 -547q-158 -215 -458 -215t-457 215q-151 205 -151 547zM279 737q0 -451 254 -587q87 -46 206 -46q227 0 349 177q112 164 112 456q0 448 -256 585q-86 46 -205 46q-231 0 -349 -175 q-111 -165 -111 -456zM569 1593l227 228q45 6 97.5 6t99.5 -6l-264 -228q-37 -6 -80 -6t-80 6z" />
<glyph unicode="&#xd4;" horiz-adv-x="1478" d="M131 737q0 342 151 546q157 214 457 214q299 0 458 -214q151 -203 151 -546t-151 -547q-158 -215 -458 -215t-457 215q-151 205 -151 547zM279 737q0 -451 254 -587q87 -46 206 -46q227 0 349 177q112 164 112 456q0 448 -256 585q-86 46 -205 46q-231 0 -349 -175 q-111 -165 -111 -456zM407 1593l258 228q37 6 74 6t78 -6l252 -228q-27 -6 -78 -6q-52 0 -88 6l-162 144l-164 -144q-49 -6 -76 -6q-62 0 -94 6z" />
<glyph unicode="&#xd5;" horiz-adv-x="1478" d="M131 737q0 342 151 546q157 214 457 214q299 0 458 -214q151 -203 151 -546t-151 -547q-158 -215 -458 -215t-457 215q-151 205 -151 547zM279 737q0 -451 254 -587q87 -46 206 -46q227 0 349 177q112 164 112 456q0 448 -256 585q-86 46 -205 46q-231 0 -349 -175 q-111 -165 -111 -456zM379 1753q90 96 188 96q61 0 143 -40t124 -57t83 -17t68.5 17t64.5 52q32 -45 51 -94q-96 -90 -190 -90q-45 0 -89 17.5t-88 38t-85 38t-84 17.5t-71.5 -18.5t-63.5 -49.5q-35 41 -51 90z" />
<glyph unicode="&#xd6;" horiz-adv-x="1478" d="M131 737q0 342 151 546q157 214 457 214q299 0 458 -214q151 -203 151 -546t-151 -547q-158 -215 -458 -215t-457 215q-151 205 -151 547zM279 737q0 -451 254 -587q87 -46 206 -46q227 0 349 177q112 164 112 456q0 448 -256 585q-86 46 -205 46q-231 0 -349 -175 q-111 -165 -111 -456zM430 1704q0 45 6 92q45 6 91 6t87 -6q6 -47 6 -92t-6 -90q-41 -6 -87 -6t-91 6q-6 45 -6 90zM858 1704q0 45 6 92q39 6 85 6t93 -6q6 -47 6 -92t-6 -90q-47 -6 -93 -6t-85 6q-6 45 -6 90z" />
<glyph unicode="&#xd7;" d="M256 475l264 264l-262 265q39 51 94 94l262 -264l265 262q55 -43 94 -95l-262 -262l262 -262q-43 -57 -94 -94l-263 262l-266 -264q-51 39 -94 94z" />
<glyph unicode="&#xd8;" horiz-adv-x="1478" d="M127 0l145 201q-141 200 -141 536q0 342 151 546q157 214 457 214q231 0 381 -133l80 109q37 6 72 6t69 -6l-141 -195q148 -200 148 -541q0 -343 -151 -547q-158 -215 -458 -215q-234 0 -389 138l-82 -113q-35 -6 -69 -6q-35 0 -72 6zM279 737q0 -257 83 -411l676 925 q-117 117 -299 117q-231 0 -349 -175q-111 -165 -111 -456zM434 227q115 -123 305 -123q227 0 349 177q112 164 112 456q0 265 -90 418z" />
<glyph unicode="&#xd9;" horiz-adv-x="1384" d="M190 565v908q28 4 70 4t72 -4v-889q0 -373 198 -448q68 -25 162 -25q186 0 273.5 108.5t87.5 364.5v889q28 4 70.5 4t70.5 -4v-908q0 -295 -121 -442.5t-381 -147.5t-381 147.5t-121 442.5zM408 1821q45 6 97 6t100 -6l227 -228q-37 -6 -80 -6t-80 6z" />
<glyph unicode="&#xda;" horiz-adv-x="1384" d="M190 565v908q28 4 70 4t72 -4v-889q0 -373 198 -448q68 -25 162 -25q186 0 273.5 108.5t87.5 364.5v889q28 4 70.5 4t70.5 -4v-908q0 -295 -121 -442.5t-381 -147.5t-381 147.5t-121 442.5zM571 1593l227 228q45 6 97.5 6t99.5 -6l-264 -228q-37 -6 -80 -6t-80 6z" />
<glyph unicode="&#xdb;" horiz-adv-x="1384" d="M190 565v908q28 4 70 4t72 -4v-889q0 -373 198 -448q68 -25 162 -25q186 0 273.5 108.5t87.5 364.5v889q28 4 70.5 4t70.5 -4v-908q0 -295 -121 -442.5t-381 -147.5t-381 147.5t-121 442.5zM360 1593l258 228q37 6 74 6t78 -6l252 -228q-27 -6 -78 -6q-52 0 -88 6 l-162 144l-164 -144q-49 -6 -76 -6q-62 0 -94 6z" />
<glyph unicode="&#xdc;" horiz-adv-x="1384" d="M190 565v908q28 4 70 4t72 -4v-889q0 -373 198 -448q68 -25 162 -25q186 0 273.5 108.5t87.5 364.5v889q28 4 70.5 4t70.5 -4v-908q0 -295 -121 -442.5t-381 -147.5t-381 147.5t-121 442.5zM383 1704q0 45 6 92q45 6 91 6t87 -6q6 -47 6 -92t-6 -90q-41 -6 -87 -6t-91 6 q-6 45 -6 90zM811 1704q0 45 6 92q39 6 85 6t93 -6q6 -47 6 -92t-6 -90q-47 -6 -93 -6t-85 6q-6 45 -6 90z" />
<glyph unicode="&#xdd;" horiz-adv-x="1175" d="M49 1473q24 4 60 4q74 0 102 -4l385 -779l379 779q32 4 63 4q64 0 88 -4l-462 -926v-547q-28 -4 -72 -4t-70 4v547zM477 1593l227 228q45 6 97.5 6t99.5 -6l-264 -228q-37 -6 -80 -6t-80 6z" />
<glyph unicode="&#xde;" horiz-adv-x="1177" d="M207 0v1473q28 4 72.5 4t68.5 -4v-232q90 8 180.5 8t189.5 -26.5t174 -84.5q163 -124 163 -370q0 -244 -163 -368q-144 -111 -382 -111q-72 0 -162 8v-297q-28 -4 -72.5 -4t-68.5 4zM348 428q20 -2 35.5 -3t30.5 -2q47 -3 103.5 -3t128 12t130.5 50q129 84 129 288 q0 202 -129 286q-96 62 -263 62q-60 0 -165 -10v-680z" />
<glyph unicode="&#xdf;" horiz-adv-x="1120" d="M180 0v1028q0 244 74 358q86 134 289 134q166 0 253 -83t87 -225q0 -96 -29 -161.5t-64.5 -116.5t-64.5 -99.5t-29 -101.5t24.5 -85t61.5 -59.5t80 -56t80 -64.5q86 -84 86 -202q0 -147 -95 -223q-85 -68 -239 -68q-125 0 -241 52q13 61 39 118q45 -18 91 -33.5 t105 -15.5q199 0 199 162q0 92 -85 156q-36 28 -78 53t-78 57q-85 77 -85 195q0 74 30 130t64.5 109.5t64.5 112.5t30 147t-55.5 136.5t-138.5 48.5t-129 -22.5t-71 -68.5q-41 -78 -41 -290v-1022q-24 -4 -66.5 -4t-68.5 4z" />
<glyph unicode="&#xe0;" horiz-adv-x="1050" d="M113 297q0 162 119 255q115 89 308 89q93 0 216 -14v63q0 260 -252 260q-147 0 -271 -39q-24 43 -24 119q129 39 310 39q372 0 372 -360v-691q-221 -43 -369 -43q-409 0 -409 322zM227 1481q46 4 83 4h60q23 0 45 -4l240 -267q-37 -6 -76 -6t-76 6zM248 301 q0 -172 182 -199q49 -8 131 -8t195 23v391q-123 14 -187 14q-154 0 -237.5 -57t-83.5 -164z" />
<glyph unicode="&#xe1;" horiz-adv-x="1050" d="M113 297q0 162 119 255q115 89 308 89q93 0 216 -14v63q0 260 -252 260q-147 0 -271 -39q-24 43 -24 119q129 39 310 39q372 0 372 -360v-691q-221 -43 -369 -43q-409 0 -409 322zM248 301q0 -172 182 -199q49 -8 131 -8t195 23v391q-123 14 -187 14q-154 0 -237.5 -57 t-83.5 -164zM352 1214l240 267q23 4 46 4h47q51 0 95 -4l-276 -267q-37 -6 -76 -6t-76 6z" />
<glyph unicode="&#xe2;" horiz-adv-x="1050" d="M113 297q0 162 119 255q115 89 308 89q93 0 216 -14v63q0 260 -252 260q-147 0 -271 -39q-24 43 -24 119q129 39 310 39q372 0 372 -360v-691q-221 -43 -369 -43q-409 0 -409 322zM190 1214l240 265q30 6 88 6q60 0 90 -6l238 -265q-35 -6 -62 -6q-66 0 -96 6l-170 189 l-170 -189q-34 -6 -79.5 -6t-78.5 6zM248 301q0 -172 182 -199q49 -8 131 -8t195 23v391q-123 14 -187 14q-154 0 -237.5 -57t-83.5 -164z" />
<glyph unicode="&#xe3;" horiz-adv-x="1050" d="M113 297q0 162 119 255q115 89 308 89q93 0 216 -14v63q0 260 -252 260q-147 0 -271 -39q-24 43 -24 119q129 39 310 39q372 0 372 -360v-691q-221 -43 -369 -43q-409 0 -409 322zM184 1356q81 92 178 92q66 0 166 -52q37 -20 74 -36.5t76 -16.5t67.5 14.5t69.5 51.5 q33 -47 49 -98q-83 -88 -178 -88q-68 0 -163 51q-97 53 -145.5 53t-77 -16t-67.5 -49q-35 47 -49 94zM248 301q0 -172 182 -199q49 -8 131 -8t195 23v391q-123 14 -187 14q-154 0 -237.5 -57t-83.5 -164z" />
<glyph unicode="&#xe4;" horiz-adv-x="1050" d="M113 297q0 162 119 255q115 89 308 89q93 0 216 -14v63q0 260 -252 260q-147 0 -271 -39q-24 43 -24 119q129 39 310 39q372 0 372 -360v-691q-221 -43 -369 -43q-409 0 -409 322zM245 1342q0 44 6 88q39 6 82 6t84 -6q13 -94 0 -175q-41 -6 -84 -6t-82 6q-6 43 -6 87z M248 301q0 -172 182 -199q49 -8 131 -8t195 23v391q-123 14 -187 14q-154 0 -237.5 -57t-83.5 -164zM643 1255q-13 93 0 175q39 6 82 6t84 -6q6 -43 6 -87.5t-6 -87.5q-41 -6 -84 -6t-82 6z" />
<glyph unicode="&#xe5;" horiz-adv-x="1050" d="M113 297q0 162 119 255q115 89 308 89q93 0 216 -14v63q0 260 -252 260q-147 0 -271 -39q-24 43 -24 119q129 39 310 39q372 0 372 -360v-691q-221 -43 -369 -43q-409 0 -409 322zM248 301q0 -172 182 -199q49 -8 131 -8t195 23v391q-123 14 -187 14q-154 0 -237.5 -57 t-83.5 -164zM329 1416q0 87 56.5 147.5t151.5 60.5t151.5 -60.5t56.5 -147.5t-55.5 -147.5t-152.5 -60.5t-152.5 60.5t-55.5 147.5zM432 1415q0 -117 105.5 -117t105.5 117q0 119 -105.5 119t-105.5 -119z" />
<glyph unicode="&#xe6;" horiz-adv-x="1738" d="M100 297q0 160 120 252q115 88 318 88q105 0 207 -12v65q0 260 -253 260q-149 0 -271 -39q-24 43 -24 119q129 39 277 39t230 -46t134 -151q53 90 144 143.5t203.5 53.5t192.5 -35t134 -98q110 -125 110 -336q0 -56 -4 -96h-746q0 -324 210 -386q73 -22 190 -22t260 49 q19 -43 24 -114q-122 -56 -313 -56q-240 0 -364 109q-63 -43 -168 -76t-206 -33t-173 18.5t-124 57.5q-108 81 -108 246zM236 301q0 -207 260 -207q200 0 313 84q-66 100 -66 287l-2 41q-105 12 -184 12q-154 0 -237.5 -55t-83.5 -162zM877 616h610q0 141 -68 232 q-76 102 -221 102t-225 -87t-96 -247z" />
<glyph unicode="&#xe7;" horiz-adv-x="983" d="M121 522q0 241 129 390q136 157 379 157q159 0 260 -37q0 -57 -23 -117q-102 35 -215.5 35t-182.5 -31.5t-115 -88.5q-91 -114 -91 -321.5t105.5 -311t285.5 -103.5q115 0 219 37q20 -41 33 -113q-122 -43 -262 -43h-25l-40 -100q10 2 19 2h19q104 0 154.5 -49t50.5 -136 t-75.5 -136.5t-185.5 -49.5t-169 27q0 66 23 100q70 -24 127 -24q151 0 151 96q0 82 -145 82q-32 0 -107 -12l-10 8l76 205q-190 35 -287.5 170t-97.5 364z" />
<glyph unicode="&#xe8;" horiz-adv-x="1132" d="M123 516q0 241 111 391q121 162 356 162q201 0 316 -133q55 -62 82.5 -149t27.5 -166t-4 -119h-746q0 -209 96.5 -307.5t288.5 -98.5q132 0 275 49q19 -43 24 -114q-122 -56 -285 -56t-260.5 40t-160.5 112q-121 140 -121 389zM270 614h611q0 226 -158 308 q-55 28 -133 28q-143 0 -223 -88t-97 -248zM322 1481q46 4 83 4h60q23 0 45 -4l240 -267q-37 -6 -76 -6t-76 6z" />
<glyph unicode="&#xe9;" horiz-adv-x="1132" d="M123 516q0 241 111 391q121 162 356 162q201 0 316 -133q55 -62 82.5 -149t27.5 -166t-4 -119h-746q0 -209 96.5 -307.5t288.5 -98.5q132 0 275 49q19 -43 24 -114q-122 -56 -285 -56t-260.5 40t-160.5 112q-121 140 -121 389zM270 614h611q0 226 -158 308 q-55 28 -133 28q-143 0 -223 -88t-97 -248zM432 1214l240 267q23 4 46 4h47q51 0 95 -4l-276 -267q-37 -6 -76 -6t-76 6z" />
<glyph unicode="&#xea;" horiz-adv-x="1132" d="M123 516q0 241 111 391q121 162 356 162q201 0 316 -133q55 -62 82.5 -149t27.5 -166t-4 -119h-746q0 -209 96.5 -307.5t288.5 -98.5q132 0 275 49q19 -43 24 -114q-122 -56 -285 -56t-260.5 40t-160.5 112q-121 140 -121 389zM256 1214l240 265q30 6 88 6q60 0 90 -6 l238 -265q-35 -6 -62 -6q-66 0 -96 6l-170 189l-170 -189q-34 -6 -79.5 -6t-78.5 6zM270 614h611q0 226 -158 308q-55 28 -133 28q-143 0 -223 -88t-97 -248z" />
<glyph unicode="&#xeb;" horiz-adv-x="1132" d="M123 516q0 241 111 391q121 162 356 162q201 0 316 -133q55 -62 82.5 -149t27.5 -166t-4 -119h-746q0 -209 96.5 -307.5t288.5 -98.5q132 0 275 49q19 -43 24 -114q-122 -56 -285 -56t-260.5 40t-160.5 112q-121 140 -121 389zM270 614h611q0 226 -158 308 q-55 28 -133 28q-143 0 -223 -88t-97 -248zM295 1342q0 44 6 88q39 6 82 6t84 -6q13 -94 0 -175q-41 -6 -84 -6t-82 6q-6 43 -6 87zM693 1255q-13 93 0 175q39 6 82 6t84 -6q6 -43 6 -87.5t-6 -87.5q-41 -6 -84 -6t-82 6z" />
<glyph unicode="&#xec;" horiz-adv-x="559" d="M31 1481q46 4 83 4h60q23 0 45 -4l240 -267q-37 -6 -76 -6t-76 6zM109 985q0 39 4 59h266v-1044q-24 -4 -67.5 -4t-67.5 4v930h-131q-4 20 -4 55z" />
<glyph unicode="&#xed;" horiz-adv-x="559" d="M109 985q0 39 4 59h266v-1044q-24 -4 -67.5 -4t-67.5 4v930h-131q-4 20 -4 55zM109 1214l240 267q23 4 46 4h47q51 0 95 -4l-276 -267q-37 -6 -76 -6t-76 6z" />
<glyph unicode="&#xee;" horiz-adv-x="559" d="M-45 1214l240 265q30 6 88 6q60 0 90 -6l238 -265q-35 -6 -62 -6q-66 0 -96 6l-170 189l-170 -189q-34 -6 -79.5 -6t-78.5 6zM109 985q0 39 4 59h266v-1044q-24 -4 -67.5 -4t-67.5 4v930h-131q-4 20 -4 55z" />
<glyph unicode="&#xef;" horiz-adv-x="559" d="M-2 1342q0 44 6 88q39 6 82 6t84 -6q13 -94 0 -175q-41 -6 -84 -6t-82 6q-6 43 -6 87zM109 985q0 39 4 59h266v-1044q-24 -4 -67.5 -4t-67.5 4v930h-131q-4 20 -4 55zM396 1255q-13 93 0 175q39 6 82 6t84 -6q6 -43 6 -87.5t-6 -87.5q-41 -6 -84 -6t-82 6z" />
<glyph unicode="&#xf0;" horiz-adv-x="1204" d="M121 487q0 230 115 366q124 146 348 146q76 0 156 -23q94 -26 152 -87q9 -10 19 -21q-35 140 -97 236t-128 149l-213 -129q-35 32 -61 97l166 100q-79 42 -246 74q-2 10 -2 35q0 51 14 79q207 -23 354 -112l193 114q28 -20 67 -94l-159 -94q137 -125 210.5 -315.5 t73.5 -452t-116.5 -421t-364.5 -159.5q-235 0 -364 143q-117 132 -117 369zM274 494.5q0 -185.5 80 -290t249 -104.5t248 104.5t79 289.5q0 378 -328 378q-152 0 -240 -96t-88 -281.5z" />
<glyph unicode="&#xf1;" horiz-adv-x="1171" d="M180 0v1044q40 5 59 5q37 0 64 -5q8 -74 8 -188q76 141 231 194q58 19 126 19q344 0 344 -410v-659q-24 -4 -67.5 -4t-67.5 4v618q0 174 -54.5 250t-163.5 76q-150 0 -244 -112q-100 -118 -100 -316v-516q-24 -4 -66.5 -4t-68.5 4zM246 1356q81 92 178 92q66 0 166 -52 q37 -20 74 -36.5t76 -16.5t67.5 14.5t69.5 51.5q33 -47 49 -98q-83 -88 -178 -88q-68 0 -163 51q-97 53 -145.5 53t-77 -16t-67.5 -49q-35 47 -49 94z" />
<glyph unicode="&#xf2;" horiz-adv-x="1175" d="M121 522q0 244 115 390q126 157 352 157q225 0 349 -157q118 -150 118 -390q0 -238 -118 -389q-124 -158 -349 -158q-227 0 -352 158q-115 146 -115 389zM262 522q0 -199 81 -313.5t245 -114.5t244.5 115t80.5 313q0 199 -80.5 313.5t-244.5 114.5t-245 -114.5 t-81 -313.5zM320 1481q46 4 83 4h60q23 0 45 -4l240 -267q-37 -6 -76 -6t-76 6z" />
<glyph unicode="&#xf3;" horiz-adv-x="1175" d="M121 522q0 244 115 390q126 157 352 157q225 0 349 -157q118 -150 118 -390q0 -238 -118 -389q-124 -158 -349 -158q-227 0 -352 158q-115 146 -115 389zM262 522q0 -199 81 -313.5t245 -114.5t244.5 115t80.5 313q0 199 -80.5 313.5t-244.5 114.5t-245 -114.5 t-81 -313.5zM414 1214l240 267q23 4 46 4h47q51 0 95 -4l-276 -267q-37 -6 -76 -6t-76 6z" />
<glyph unicode="&#xf4;" horiz-adv-x="1175" d="M121 522q0 244 115 390q126 157 352 157q225 0 349 -157q118 -150 118 -390q0 -238 -118 -389q-124 -158 -349 -158q-227 0 -352 158q-115 146 -115 389zM260 1214l240 265q30 6 88 6q60 0 90 -6l238 -265q-35 -6 -62 -6q-66 0 -96 6l-170 189l-170 -189q-34 -6 -79.5 -6 t-78.5 6zM262 522q0 -199 81 -313.5t245 -114.5t244.5 115t80.5 313q0 199 -80.5 313.5t-244.5 114.5t-245 -114.5t-81 -313.5z" />
<glyph unicode="&#xf5;" horiz-adv-x="1175" d="M121 522q0 244 115 390q126 157 352 157q225 0 349 -157q118 -150 118 -390q0 -238 -118 -389q-124 -158 -349 -158q-227 0 -352 158q-115 146 -115 389zM248 1356q81 92 178 92q66 0 166 -52q37 -20 74 -36.5t76 -16.5t67.5 14.5t69.5 51.5q33 -47 49 -98 q-83 -88 -178 -88q-68 0 -163 51q-97 53 -145.5 53t-77 -16t-67.5 -49q-35 47 -49 94zM262 522q0 -199 81 -313.5t245 -114.5t244.5 115t80.5 313q0 199 -80.5 313.5t-244.5 114.5t-245 -114.5t-81 -313.5z" />
<glyph unicode="&#xf6;" horiz-adv-x="1175" d="M121 522q0 244 115 390q126 157 352 157q225 0 349 -157q118 -150 118 -390q0 -238 -118 -389q-124 -158 -349 -158q-227 0 -352 158q-115 146 -115 389zM262 522q0 -199 81 -313.5t245 -114.5t244.5 115t80.5 313q0 199 -80.5 313.5t-244.5 114.5t-245 -114.5 t-81 -313.5zM303 1342q0 44 6 88q39 6 82 6t84 -6q13 -94 0 -175q-41 -6 -84 -6t-82 6q-6 43 -6 87zM701 1255q-13 93 0 175q39 6 82 6t84 -6q6 -43 6 -87.5t-6 -87.5q-41 -6 -84 -6t-82 6z" />
<glyph unicode="&#xf7;" d="M174 719q0 50 4 72h873q4 -20 4 -72q0 -46 -4 -68h-873q-4 20 -4 68zM485 386q0 50 34 86t84 36t86 -36t36 -86t-36 -84t-86 -34t-84 34t-34 84zM485 1058q0 50 34 86t84 36t86 -36t36 -86t-36 -84t-86 -34t-84 34t-34 84z" />
<glyph unicode="&#xf8;" horiz-adv-x="1175" d="M121 522q0 244 115 390q126 157 352 157q185 0 301 -108l65 83q62 15 125 0l-125 -157q100 -147 101 -365q0 -238 -118 -389q-124 -158 -349 -158q-168 0 -279 86l-49 -61q-29 -6 -63.5 -6t-61.5 6l103 131q-117 147 -117 391zM262 533.5q0 -187.5 62 -293.5l487 620 q-86 90 -236.5 90t-231.5 -114.5t-81 -302zM387 162q76 -68 201 -68q164 0 244.5 115t80.5 287.5t-47 277.5z" />
<glyph unicode="&#xf9;" horiz-adv-x="1177" d="M172 449v595q30 5 72.5 5t62.5 -5v-587q0 -211 89 -292q78 -71 226 -71t240 27v923q30 5 72.5 5t62.5 -5v-1017q-315 -83 -541 -33q-176 38 -247 215q-37 92 -37 240zM299 1481q46 4 83 4h60q23 0 45 -4l240 -267q-37 -6 -76 -6t-76 6z" />
<glyph unicode="&#xfa;" horiz-adv-x="1177" d="M172 449v595q30 5 72.5 5t62.5 -5v-587q0 -211 89 -292q78 -71 226 -71t240 27v923q30 5 72.5 5t62.5 -5v-1017q-315 -83 -541 -33q-176 38 -247 215q-37 92 -37 240zM465 1214l240 267q23 4 46 4h47q51 0 95 -4l-276 -267q-37 -6 -76 -6t-76 6z" />
<glyph unicode="&#xfb;" horiz-adv-x="1177" d="M172 449v595q30 5 72.5 5t62.5 -5v-587q0 -211 89 -292q78 -71 226 -71t240 27v923q30 5 72.5 5t62.5 -5v-1017q-315 -83 -541 -33q-176 38 -247 215q-37 92 -37 240zM260 1214l240 265q30 6 88 6q60 0 90 -6l238 -265q-35 -6 -62 -6q-66 0 -96 6l-170 189l-170 -189 q-34 -6 -79.5 -6t-78.5 6z" />
<glyph unicode="&#xfc;" horiz-adv-x="1177" d="M172 449v595q30 5 72.5 5t62.5 -5v-587q0 -211 89 -292q78 -71 226 -71t240 27v923q30 5 72.5 5t62.5 -5v-1017q-315 -83 -541 -33q-176 38 -247 215q-37 92 -37 240zM313 1342q0 44 6 88q39 6 82 6t84 -6q13 -94 0 -175q-41 -6 -84 -6t-82 6q-6 43 -6 87zM711 1255 q-13 93 0 175q39 6 82 6t84 -6q6 -43 6 -87.5t-6 -87.5q-41 -6 -84 -6t-82 6z" />
<glyph unicode="&#xfd;" horiz-adv-x="1054" d="M33 1044q30 5 62 5q73 0 93 -5l347 -1015l339 1015q30 5 70 5q48 0 70 -5l-459 -1353q-37 -113 -104.5 -158t-153 -45t-166.5 25q0 63 31 114q53 -20 117.5 -20t100.5 28.5t62 106.5l84 254h-39q-53 0 -77 4zM381 1214l240 267q23 4 46 4h47q51 0 95 -4l-276 -267 q-37 -6 -76 -6t-76 6z" />
<glyph unicode="&#xfe;" horiz-adv-x="1206" d="M180 -483v1988q24 4 68 4q43 0 67 -4v-604q43 66 124 117t193.5 51t192.5 -29.5t137 -93.5q119 -134 119 -391q0 -273 -144 -425q-147 -155 -411 -155q-114 0 -211 33v-491q-24 -4 -66.5 -4t-68.5 4zM315 133q97 -37 204.5 -37t179 25.5t125.5 80.5q114 119 114 345 q0 401 -299 401q-124 0 -212 -72q-112 -93 -112 -268v-475z" />
<glyph unicode="&#xff;" horiz-adv-x="1054" d="M33 1044q30 5 62 5q73 0 93 -5l347 -1015l339 1015q30 5 70 5q48 0 70 -5l-459 -1353q-37 -113 -104.5 -158t-153 -45t-166.5 25q0 63 31 114q53 -20 117.5 -20t100.5 28.5t62 106.5l84 254h-39q-53 0 -77 4zM241 1342q0 44 6 88q39 6 82 6t84 -6q13 -94 0 -175 q-41 -6 -84 -6t-82 6q-6 43 -6 87zM639 1255q-13 93 0 175q39 6 82 6t84 -6q6 -43 6 -87.5t-6 -87.5q-41 -6 -84 -6t-82 6z" />
<glyph unicode="&#x152;" horiz-adv-x="1873" d="M125 737q0 342 159 546q166 214 466 214q153 0 247 -24h766q4 -24 4 -64t-4 -66h-647v-497h520q4 -24 4 -64.5t-4 -64.5h-520v-588h666q4 -24 4 -64.5t-4 -64.5h-776q-119 -25 -270 -25t-266.5 56.5t-191.5 158.5q-153 202 -153 547zM272 737q0 -288 116 -456 q122 -177 369 -177q135 0 218 25v1214q-95 25 -219.5 25t-213.5 -46t-150 -129q-120 -165 -120 -456z" />
<glyph unicode="&#x153;" horiz-adv-x="1923" d="M123 522q0 244 115 390q126 157 352 157q141 0 241.5 -64.5t153.5 -177.5q109 242 395 242q198 0 316 -141q55 -64 82.5 -150t27.5 -161t-4 -115h-745q0 -209 96 -307.5t289 -98.5q134 0 274 49q20 -45 25 -114q-122 -56 -314 -56q-337 0 -446 254 q-55 -117 -152.5 -185.5t-226.5 -68.5t-217 42t-147 116q-115 146 -115 389zM264 522q0 -199 81 -313.5t245 -114.5t244.5 115t80.5 313q0 199 -80.5 313.5t-244.5 114.5t-245 -114.5t-81 -313.5zM1061 614h610q0 236 -157 308q-56 26 -134 26q-143 0 -223 -87t-96 -247z " />
<glyph unicode="&#x178;" horiz-adv-x="1175" d="M49 1473q24 4 60 4q74 0 102 -4l385 -779l379 779q32 4 63 4q64 0 88 -4l-462 -926v-547q-28 -4 -72 -4t-70 4v547zM287 1704q0 45 6 92q45 6 91 6t87 -6q6 -47 6 -92t-6 -90q-41 -6 -87 -6t-91 6q-6 45 -6 90zM715 1704q0 45 6 92q39 6 85 6t93 -6q6 -47 6 -92t-6 -90 q-47 -6 -93 -6t-85 6q-6 45 -6 90z" />
<glyph unicode="&#x2c6;" horiz-adv-x="1019" d="M182 1214l240 265q30 6 88 6q60 0 90 -6l238 -265q-35 -6 -62 -6q-66 0 -96 6l-170 189l-170 -189q-34 -6 -79.5 -6t-78.5 6z" />
<glyph unicode="&#x2dc;" horiz-adv-x="1024" d="M172 1356q81 92 178 92q66 0 166 -52q37 -20 74 -36.5t76 -16.5t67.5 14.5t69.5 51.5q33 -47 49 -98q-83 -88 -178 -88q-68 0 -163 51q-97 53 -145.5 53t-77 -16t-67.5 -49q-35 47 -49 94z" />
<glyph unicode="&#x2000;" horiz-adv-x="958" />
<glyph unicode="&#x2001;" horiz-adv-x="1917" />
<glyph unicode="&#x2002;" horiz-adv-x="958" />
<glyph unicode="&#x2003;" horiz-adv-x="1917" />
<glyph unicode="&#x2004;" horiz-adv-x="639" />
<glyph unicode="&#x2005;" horiz-adv-x="479" />
<glyph unicode="&#x2006;" horiz-adv-x="319" />
<glyph unicode="&#x2007;" horiz-adv-x="319" />
<glyph unicode="&#x2008;" horiz-adv-x="239" />
<glyph unicode="&#x2009;" horiz-adv-x="383" />
<glyph unicode="&#x200a;" horiz-adv-x="106" />
<glyph unicode="&#x2010;" horiz-adv-x="722" d="M88 582q0 49 4 69h539q4 -20 4 -69q0 -48 -4 -68h-539q-4 20 -4 68z" />
<glyph unicode="&#x2011;" horiz-adv-x="722" d="M88 582q0 49 4 69h539q4 -20 4 -69q0 -48 -4 -68h-539q-4 20 -4 68z" />
<glyph unicode="&#x2012;" horiz-adv-x="722" d="M88 582q0 49 4 69h539q4 -20 4 -69q0 -48 -4 -68h-539q-4 20 -4 68z" />
<glyph unicode="&#x2013;" horiz-adv-x="1024" d="M-4 582.5q0 40.5 4 68.5h1024q4 -28 4 -70.5t-4 -66.5h-1024q-4 28 -4 68.5z" />
<glyph unicode="&#x2014;" horiz-adv-x="2048" d="M-4 582.5q0 40.5 4 68.5h2048q4 -28 4 -70.5t-4 -66.5h-2048q-4 28 -4 68.5z" />
<glyph unicode="&#x2018;" horiz-adv-x="456" d="M102 1473q36 4 72 4t70 -4l110 -406q-16 -4 -34 -4h-60.5t-46.5 4z" />
<glyph unicode="&#x2019;" horiz-adv-x="456" d="M102 1067l111 406q36 4 70 4q35 0 71 -4l-110 -406q-20 -4 -38 -4h-61t-43 4z" />
<glyph unicode="&#x201a;" horiz-adv-x="456" d="M102 -231l111 405q32 4 70 4q35 0 71 -4l-110 -405q-25 -5 -57 -5h-51q-17 0 -34 5z" />
<glyph unicode="&#x201c;" horiz-adv-x="829" d="M103 1472l110 -405q25 -5 57 -5h50q18 0 35 5l-111 405q-32 4 -70 4q-35 0 -71 -4zM475 1472l110 -405q25 -5 57 -5h50q18 0 35 5l-111 405q-32 4 -70 4q-35 0 -71 -4z" />
<glyph unicode="&#x201d;" horiz-adv-x="829" d="M102 1067l111 405q32 4 70 4q35 0 71 -4l-110 -405q-25 -5 -57 -5h-50q-18 0 -35 5zM475 1067l111 405q32 4 70 4q35 0 71 -4l-110 -405q-25 -5 -57 -5h-50q-18 0 -35 5z" />
<glyph unicode="&#x201e;" horiz-adv-x="829" d="M102 -231l111 405q32 4 70 4q35 0 71 -4l-110 -405q-25 -5 -57 -5h-50q-18 0 -35 5zM475 -231l111 405q32 4 70 4q35 0 71 -4l-110 -405q-25 -5 -57 -5h-50q-18 0 -35 5z" />
<glyph unicode="&#x2022;" horiz-adv-x="768" d="M154 777q0 48 18 90t49 73q68 68 164 68q94 0 162 -68q67 -67 67 -162q0 -98 -67 -164q-69 -67 -162 -67q-95 0 -164 67q-67 66 -67 163z" />
<glyph unicode="&#x2026;" horiz-adv-x="1353" d="M117 87q0 44 6 87q43 6 87 6t87 -6q6 -43 6 -87t-6 -87q-43 -6 -87 -6t-87 6q-6 43 -6 87zM584 87q0 44 6 87q43 6 87 6t87 -6q6 -43 6 -87t-6 -87q-43 -6 -87 -6t-87 6q-6 43 -6 87zM1051 87q0 44 6 87q43 6 87 6t87 -6q6 -43 6 -87t-6 -87q-43 -6 -87 -6t-87 6 q-6 43 -6 87z" />
<glyph unicode="&#x202f;" horiz-adv-x="383" />
<glyph unicode="&#x2039;" horiz-adv-x="735" d="M113 547l358 452q37 6 76 7q39 0 80 -7l-351 -448l351 -457q-37 -6 -77 -6t-79 6z" />
<glyph unicode="&#x203a;" horiz-adv-x="735" d="M109 94l350 449l-350 456q37 6 75 7q39 0 80 -7l359 -452l-359 -453q-37 -6 -77 -6t-78 6z" />
<glyph unicode="&#x205f;" horiz-adv-x="479" />
<glyph unicode="&#x20ac;" d="M49 562.5q0 33.5 8 60.5h142q-2 20 -2 41v45q0 64 4 120h-144q-8 25 -8 59t8 60h160q47 256 201.5 390.5t408.5 134.5q190 0 340 -50q-6 -57 -32 -120q-113 45 -305 45q-375 0 -459 -400h596q6 -29 6 -58.5t-6 -60.5h-615q-4 -58 -4 -101v-64q0 -21 2 -41h617 q6 -29 6 -59t-6 -60h-600q78 -402 475 -402q186 0 307 66q38 -74 47 -119q-148 -74 -386.5 -74t-396 133.5t-200.5 395.5h-156q-8 25 -8 58.5z" />
<glyph unicode="&#x2122;" horiz-adv-x="1730" d="M63 1389q0 31 7 59h630q7 -28 7 -56t-7 -59h-256v-704q-24 -6 -48 -6h-40q-16 0 -30 4v706h-256q-7 28 -7 56zM799 627l39 821q32 4 56 4q45 0 79 -4l239 -492l238 492q32 4 58 4q45 0 77 -4l37 -819q-24 -6 -48 -6h-38q-16 0 -31 4l-32 602l-224 -441q-24 -4 -43 -4 q-17 0 -43 4l-215 439l-28 -598q-24 -6 -49 -6h-41q-15 0 -31 4z" />
<glyph unicode="&#xe000;" horiz-adv-x="1054" d="M0 0v1055h1055v-1055h-1055z" />
</font>
</defs>
</svg>
