<?xml version="1.0" standalone="no"?>
<!DOCTYPE svg PUBLIC "-//W3C//DTD SVG 1.1//EN" "http://www.w3.org/Graphics/SVG/1.1/DTD/svg11.dtd" >
<svg xmlns="http://www.w3.org/2000/svg">
<metadata></metadata>
<defs>
<font id="AllerBoldItalic" horiz-adv-x="1228" >
<font-face units-per-em="2048" ascent="1638" descent="-410" />
<missing-glyph horiz-adv-x="428" />
<glyph unicode="&#xfb01;" horiz-adv-x="1220" d="M-211 -471q10 123 68 221q52 -18 92.5 -18t75 11t64.5 45q63 72 93 249l144 801h-170q0 119 39 221h170l4 16q41 229 161.5 338t325.5 109q88 0 179 -20.5t145 -49.5q-21 -102 -86 -225q-96 59 -236 59q-83 0 -119.5 -31.5t-54.5 -72.5q-16 -35 -35 -123h602l-186 -1059 q-78 -12 -144 -12t-141 12l148 838h-318l-147 -828q-74 -412 -319 -486q-78 -24 -170.5 -24t-184.5 29z" />
<glyph unicode="&#xfb02;" horiz-adv-x="1316" d="M-211 -471q10 123 68 221q52 -18 92.5 -18t75 11t64.5 45q63 72 93 249l144 801h-170q0 119 39 221h170l4 16q41 229 161.5 338t325.5 109q125 0 247 -28t202 -60q10 -31 10 -76q0 -64 -29 -221l-145 -760q-6 -35 -6 -63t9 -46t24 -28q22 -17 64 -17t77 13 q24 -84 24 -130q0 -58 -4 -92q-67 -26 -197 -26t-210 68.5t-80 215.5q0 48 14 127l123 637q30 166 35 224q-84 26 -140.5 26t-88 -9t-57.5 -31q-46 -41 -79 -187h223q0 -116 -38 -221h-224l-147 -828q-74 -412 -319 -486q-78 -24 -170.5 -24t-184.5 29z" />
<glyph unicode="&#xfb03;" horiz-adv-x="1841" d="M-211 -471q10 123 68 221q52 -18 92.5 -18t75 11t64.5 45q63 72 93 249l144 801h-170q0 119 39 221h170l4 16q41 229 152.5 338t297.5 109q104 0 201 -33q-27 -132 -78 -225q-50 22 -115 22q-71 0 -109 -40q-36 -37 -69 -187h336l4 16q41 229 162 338t326 109 q88 0 179 -20.5t144 -49.5q-22 -109 -86 -225q-96 59 -235 59q-85 0 -131 -40q-51 -46 -74 -169l-4 -18h602l-186 -1059q-78 -12 -144.5 -12t-140.5 12l147 838h-317l-148 -828q-74 -413 -319 -486q-78 -24 -170 -24t-184 29q10 123 67 221q52 -18 92.5 -18t75.5 11t65 45 q62 72 93 249l143 801h-336l-147 -828q-74 -412 -319 -486q-78 -24 -170.5 -24t-184.5 29z" />
<glyph unicode="&#xfb04;" horiz-adv-x="1949" d="M-211 -471q10 123 68 221q52 -18 92.5 -18t75 11t64.5 45q63 72 93 249l144 801h-170q0 119 39 221h170l4 16q41 229 152.5 338t297.5 109q104 0 201 -33q-27 -132 -78 -225q-50 22 -115 22q-71 0 -109 -40q-36 -37 -69 -187h348l4 16q41 229 162 338t326 109 q125 0 247 -28t201 -60q20 -62 7 -147t-25 -150l-145 -760q-13 -79 -0.5 -103t26.5 -34q23 -17 65 -17t77 13q24 -84 24 -130q0 -58 -4 -92q-67 -26 -197 -26t-210 68.5t-80 215.5q0 48 14 127l123 637q27 150 35 224q-85 26 -141 26t-88 -9t-58 -31q-51 -46 -74 -169 l-4 -18h223q0 -118 -39 -221h-223l-147 -828q-74 -412 -320 -486q-78 -24 -170 -24t-184 29q10 123 67 221q52 -18 93 -18t75.5 11t64.5 45q63 72 93 249l143 801h-348l-147 -828q-74 -412 -319 -486q-78 -24 -170.5 -24t-184.5 29z" />
<glyph horiz-adv-x="0" />
<glyph horiz-adv-x="2048" />
<glyph unicode="&#xd;" horiz-adv-x="972" />
<glyph unicode=" "  horiz-adv-x="428" />
<glyph unicode="&#x09;" horiz-adv-x="428" />
<glyph unicode="&#xa0;" horiz-adv-x="428" />
<glyph unicode="!" horiz-adv-x="589" d="M141 0q0 141 52 299q72 14 153 14t146 -14q0 -141 -52 -299q-72 -14 -153 -14t-146 14zM236 471l161 1002q65 12 131 12q126 0 185 -12l-201 -1002q-78 -12 -143.5 -12t-132.5 12z" />
<glyph unicode="&#x22;" horiz-adv-x="874" d="M248 897l100 573q57 13 111 13q104 0 153 -13l-100 -573q-62 -10 -115 -10q-94 0 -149 10zM637 897l100 573q57 13 111 13q104 0 153 -13l-100 -573q-62 -10 -115 -10q-94 0 -149 10z" />
<glyph unicode="#" horiz-adv-x="1503" d="M190 420q0 89 39 217h248l66 248h-230q0 115 39 219h248l80 309q58 10 109 10q91 0 139 -10l-80 -309h250l80 309q58 10 109 10q90 0 140 -10l-79 -309h215q-10 -130 -39 -219h-232l-65 -248h213q0 -96 -37 -217h-232l-92 -359q-62 -10 -129 -10q-69 0 -121 10l93 359 h-248l-92 -359q-58 -10 -110 -10q-89 0 -142 10l92 359h-232zM727 637h250l65 248h-249z" />
<glyph unicode="$" d="M156 47q21 161 63 258q156 -74 322 -74q127 0 212 55q85 54 85 144q0 80 -70 138q-33 28 -75 53.5t-99.5 60.5t-107.5 74t-82 83q-64 90 -64 210q0 178 122 290.5t335 135.5l32 182q45 12 91 12q45 0 88 -12l-33 -178q140 -11 280 -68q-22 -150 -75 -235q-132 65 -293 65 q-154 0 -211 -77q-23 -31 -23 -85.5t50.5 -98.5t131.5 -93t138 -88t99 -84q91 -97 91 -230q0 -176 -111 -307q-120 -142 -339 -184l-39 -236q-47 -12 -91 -12t-87 12l39 217h-13q-201 0 -366 72z" />
<glyph unicode="%" horiz-adv-x="2062" d="M227 936q0 216 117 370q126 167 344 167q160 0 243 -100q75 -91 75 -220t-33 -225.5t-92.5 -169t-143.5 -114.5t-179 -42t-156.5 26.5t-99.5 71.5q-75 89 -75 236zM477 942q0 -145 99 -145q89 0 140 119q40 96 40 208q0 152 -101 152q-92 0 -141 -124q-37 -95 -37 -210z M512 4l990 1448q70 12 138 12t146 -12l-991 -1448q-72 -12 -139.5 -12t-143.5 12zM1284 309q0 216 117 370q126 167 344 167q160 0 243 -100q75 -91 75 -220t-33 -225.5t-92.5 -169t-143.5 -114.5t-179 -42t-156.5 26.5t-99.5 71.5q-75 89 -75 236zM1534 315q0 -145 99 -145 q89 0 140 119q40 96 40 208q0 152 -101 152q-92 0 -141 -124q-37 -95 -37 -210z" />
<glyph unicode="&#x26;" horiz-adv-x="1515" d="M184 371q0 164 103 297q86 112 215 163q-57 35 -97 98.5t-40 157.5t43 172t114 131q140 107 324.5 107t288.5 -45q-9 -127 -64 -217q-101 37 -170.5 37t-109 -10.5t-69.5 -31.5q-67 -49 -67 -122q0 -154 156 -154h338l4 21q14 71 14 174q95 63 277 63q10 -31 10 -70 q0 -60 -18 -161l-6 -27h163q-7 -108 -39 -221h-161l-43 -250q-74 -404 -440 -484q-111 -24 -223.5 -24t-202 22.5t-156.5 70.5q-144 103 -144 303zM496 422q0 -94 59 -145.5t155.5 -51.5t158 24.5t104.5 68.5q83 85 108 241l29 174h-256q-123 0 -196 -37t-117.5 -108.5 t-44.5 -165.5z" />
<glyph unicode="'" horiz-adv-x="485" d="M248 897l100 573q57 13 111 13q104 0 153 -13l-100 -573q-62 -10 -115 -10q-94 0 -149 10z" />
<glyph unicode="(" horiz-adv-x="755" d="M246 274q0 776 432 1313q57 15 118 15q121 0 175 -15q-428 -594 -428 -1308q0 -364 88 -619q-58 -14 -156 -14q-82 0 -129 14q-100 272 -100 614z" />
<glyph unicode=")" horiz-adv-x="786" d="M-10 -340q428 594 428 1309q0 186 -24 330q-31 197 -64 288q62 15 155 15q79 0 129 -15q101 -275 101 -614q0 -443 -143 -809q-109 -277 -289 -504q-54 -14 -116 -14q-126 0 -177 14z" />
<glyph unicode="*" horiz-adv-x="1011" d="M256 1102q22 82 66 137l266 -68q-26 -80 -94 -182zM319 719l179 235q84 -54 145 -127l-209 -211q-67 37 -115 103zM610 1192l72 278q45 9 84 9t78 -9l-27 -278q-62 -8 -98 -8q-59 0 -109 8zM678 836q83 71 170 112l102 -250q-45 -42 -131 -86zM836 1169l274 68 q25 -83 25 -150l-273 -112q-38 68 -26 194z" />
<glyph unicode="+" d="M272 600q0 119 43 248h318l65 362q133 26 256 0l-65 -362h317q7 -108 -43 -248h-317l-64 -362q-142 -26 -256 0l64 362h-318z" />
<glyph unicode="," horiz-adv-x="593" d="M37 -229l221 522q56 16 139 16q91 0 144 -16l-234 -522q-60 -13 -139 -13q-80 0 -131 13z" />
<glyph unicode="-" horiz-adv-x="749" d="M207 475q0 113 43 252h512q4 -112 -43 -252h-512z" />
<glyph unicode="." horiz-adv-x="589" d="M145 0q0 141 52 299q72 14 153 14t146 -14q0 -141 -52 -299q-72 -14 -153 -14t-146 14z" />
<glyph unicode="/" horiz-adv-x="823" d="M31 0l729 1470q163 29 291 0l-732 -1470q-80 -12 -149 -12q-70 0 -139 12z" />
<glyph unicode="0" d="M172 473q0 317 158 579q111 186 294 264q93 40 209 40t200.5 -35t140.5 -101q108 -128 108 -368q0 -196 -70 -392q-118 -336 -384 -446q-95 -39 -210 -39q-229 0 -337.5 133.5t-108.5 364.5zM469 463q0 -242 172 -242q163 0 261 241q77 188 77 404q0 240 -168 240 q-94 0 -158.5 -68.5t-105.5 -169.5q-78 -191 -78 -405z" />
<glyph unicode="1" d="M229 0q0 123 43 246h277l123 704l-244 -96q-52 101 -60 148t-12 77l611 260h67l-192 -1093h274q0 -111 -43 -246h-844z" />
<glyph unicode="2" d="M92 29l373 395q39 43 102.5 105.5t124.5 134.5q150 177 150 297q0 66 -52.5 103.5t-132.5 37.5t-139 -18.5t-131 -47.5q-62 113 -68 240q217 80 410 80q194 0 307 -86q117 -89 117 -258q0 -222 -233 -472q-66 -71 -134 -141l-143 -149h453q0 -121 -43 -250h-951z" />
<glyph unicode="3" d="M88 -72q22 128 74 240q147 -55 305 -55q224 0 311 152q29 52 29 124q0 186 -217 186q-82 0 -160 -20l-18 39l372 491h-446q0 128 43 250h838l18 -35l-426 -544q158 -16 232.5 -112.5t74.5 -235t-54 -237.5t-146 -168q-185 -140 -461 -140q-158 0 -238 23.5t-131 41.5z " />
<glyph unicode="4" d="M78 195l717 1171q159 -18 243 -98l-516 -854h287l65 368q96 11 140 11q51 0 147 -11l-65 -368h139q0 -125 -43 -248h-139l-52 -287q-88 -10 -135 -10q-63 0 -151 10l51 287h-676z" />
<glyph unicode="5" d="M106 -74q24 144 72 248q152 -57 277 -57q223 0 316 149q32 51 32 130t-59.5 125t-169 46t-234.5 -55l-31 31l168 792h715q0 -104 -43 -250h-449l-65 -303q76 13 136.5 13t128 -27t116.5 -75q104 -102 104 -244t-53 -248.5t-147 -180.5q-196 -157 -482 -157 q-172 0 -332 63z" />
<glyph unicode="6" d="M186 424q0 213 64.5 399.5t187.5 334t300 237.5t403 90h30q17 -70 17 -125q0 -30 -12 -117q-474 0 -601 -364q37 37 109 74.5t166 37.5t159.5 -23.5t113.5 -70.5q104 -102 104 -287q0 -264 -168 -447q-173 -188 -443 -188q-211 0 -320.5 118t-109.5 331zM489 436 q0 -213 164 -213q124 0 203 115q72 105 72 237q0 177 -183 177q-122 0 -193 -106q-63 -94 -63 -210z" />
<glyph unicode="7" d="M250 -29l641 1114h-569q0 147 43 250h974l7 -24l-830 -1465q-92 23 -145 50q-69 31 -121 75z" />
<glyph unicode="8" d="M178 313q0 152 87.5 266.5t232.5 204.5q-51 37 -91 102.5t-40 155.5t41 169t110 137q145 122 333.5 122t296 -82.5t107.5 -234.5q0 -222 -241 -377q76 -51 127 -122.5t51 -188.5t-47 -207t-126 -152q-165 -131 -398 -131q-304 0 -407 183q-36 63 -36 155zM485 358.5 q0 -63.5 43 -103.5t108.5 -40t108.5 16.5t75 46.5q71 65 71 173q0 129 -186 219q-145 -71 -201 -202q-19 -46 -19 -109.5zM647 1057q0 -89 105 -156q26 -17 49 -27q176 101 176 240q0 55 -34 91t-108.5 36t-131 -51t-56.5 -133z" />
<glyph unicode="9" d="M209 745q0 255 162 429q170 182 430 182q213 0 326.5 -115t113.5 -348q0 -401 -218 -699q-168 -228 -443 -300q-154 -39 -349 -39q-12 63 -12 126.5t12 122.5h48q215 0 368.5 86t214.5 277q-123 -111 -311 -111q-143 0 -242 107q-100 109 -100 282zM508 790.5 q0 -118.5 48 -158.5t117.5 -40t121 27.5t85.5 73.5q70 97 70 209q0 206 -166 206q-127 0 -206 -104q-70 -95 -70 -213.5z" />
<glyph unicode=":" horiz-adv-x="589" d="M145 0q0 141 52 299q72 14 153 14t146 -14q0 -141 -52 -299q-72 -14 -153 -14t-146 14zM278 758q0 141 52 299q72 14 153 14t146 -14q0 -141 -52 -299q-72 -14 -153 -14t-146 14z" />
<glyph unicode=";" horiz-adv-x="593" d="M-2 -229l221 522q56 16 139 16q91 0 144 -16l-234 -522q-60 -13 -139 -13q-80 0 -131 13zM301 758q0 141 52 299q72 14 153 14t146 -14q0 -141 -52 -299q-72 -14 -153 -14t-146 14z" />
<glyph unicode="&#x3c;" d="M272 543q-6 156 54 305l907 334q0 -154 -45 -281l-656 -211l578 -229q4 -137 -49 -254z" />
<glyph unicode="=" d="M250 377q-7 108 43 248h862q4 -61 -9 -131t-34 -117h-862zM324 799q0 129 45 248h862q0 -126 -45 -248h-862z" />
<glyph unicode="&#x3e;" d="M225 207q0 154 45 280l656 224l-578 217v14q0 131 49 240l789 -336v-31q0 -141 -53 -274z" />
<glyph unicode="?" horiz-adv-x="968" d="M276 1436q153 61 359.5 61t322 -88t115.5 -258q0 -168 -113 -305q-108 -134 -280 -197l-33 -186q-72 -12 -121 -12q-100 0 -147 12l61 352q202 34 294 172q34 51 34 121t-52 106.5t-149 36.5t-229 -47q-52 102 -62 232zM281 0q0 144 51 299q72 14 153 14t146 -14 q0 -137 -51 -299q-72 -14 -154 -14t-145 14z" />
<glyph unicode="@" horiz-adv-x="2082" d="M211 446q0 182 66.5 368.5t203.5 337.5t349 246t503 95q331 0 535 -170q225 -187 225 -522q0 -127 -42 -251t-117.5 -222.5t-183.5 -160t-248.5 -62.5t-217.5 77q-61 -31 -129 -54.5t-152 -23.5t-141 19.5t-100 61.5q-94 92 -94 244t46 268t126 200q170 178 411 178 q202 0 348 -55l-131 -694q20 -16 82 -16.5t121.5 44.5t98.5 117q81 147 81 330q0 236 -143 360.5t-403 124.5q-201 0 -357.5 -68.5t-264.5 -184t-164 -266.5t-56 -305t44 -259t119 -171q145 -128 380.5 -128t373.5 55q44 -111 64 -188q-160 -78 -457 -78q-337 0 -547 183 q-229 200 -229 570zM940 489q0 -92 40 -133t93 -41q68 0 148 23l88 508q-38 10 -95 10t-109 -30.5t-89 -81.5q-76 -103 -76 -255z" />
<glyph unicode="A" horiz-adv-x="1296" d="M51 0l688 1473q82 12 170 12t172 -12l181 -1473q-78 -12 -150 -12t-154 12l-26 297h-449l-131 -297q-74 -12 -152.5 -12t-148.5 12zM594 543h315l-53 590z" />
<glyph unicode="B" horiz-adv-x="1196" d="M162 0l258 1473q151 24 307 24q520 0 520 -338q0 -131 -92 -245q-85 -105 -194 -128q121 -23 186 -109.5t65 -210.5t-54 -220t-150 -156q-185 -115 -508 -115q-142 0 -338 25zM498 225q50 -8 95.5 -8t102 10.5t104.5 40.5q111 68 111 217q0 92 -60 129t-165 37h-113z M612 877h95q161 0 223 140q22 48 22 113q0 144 -196 144q-41 0 -74 -6z" />
<glyph unicode="C" horiz-adv-x="1173" d="M211 541q0 199 59.5 372.5t167 304t259 205t335.5 74.5q96 0 171 -11t155 -48q-23 -121 -86 -240q-111 43 -234.5 43t-222 -59.5t-161.5 -154.5q-122 -186 -122 -460q0 -168 87.5 -249.5t248.5 -81.5q99 0 149 15.5t89 27.5q44 -101 53 -248q-140 -56 -321 -56t-292.5 41 t-185.5 116q-149 149 -149 409z" />
<glyph unicode="D" horiz-adv-x="1404" d="M162 0l258 1470q221 27 364.5 27t269.5 -41t214 -118q182 -158 182 -441q0 -435 -264 -682q-256 -240 -676 -240q-148 0 -348 25zM504 238q37 -6 128 -6q1 0 2 -1q90 -1 184 47q95 48 165 132q145 174 145 458q0 184 -95 281q-88 90 -236 90q-74 0 -117 -6z" />
<glyph unicode="E" horiz-adv-x="1085" d="M162 0l258 1473h807l2 -33q0 -99 -47 -221h-508l-56 -320h404q0 -123 -45 -256h-404l-69 -389h522l2 -31q0 -75 -45 -223h-821z" />
<glyph unicode="F" horiz-adv-x="1038" d="M162 0l258 1473h807l2 -33q0 -99 -47 -221h-508l-60 -347h404q0 -117 -45 -256h-404l-108 -616q-84 -12 -155 -12t-144 12z" />
<glyph unicode="G" horiz-adv-x="1349" d="M211 541q0 199 59.5 372.5t167 304t259 205t335.5 74.5q195 0 326 -59q-23 -121 -86 -240q-100 43 -229 43t-226.5 -59.5t-160.5 -154.5q-121 -185 -121 -460q0 -178 87 -253.5t230 -75.5q70 0 117 10l90 514q72 14 149 14q83 0 148 -14l-129 -729q-168 -58 -366 -58 t-310.5 43t-188.5 119q-151 153 -151 404z" />
<glyph unicode="H" horiz-adv-x="1366" d="M162 0l258 1470q84 15 159.5 15t141.5 -15l-100 -575h444l100 575q77 15 152 15q89 0 149 -15l-258 -1470q-80 -12 -153 -12q-74 0 -148 12l111 637h-445l-110 -637q-84 -12 -156 -12t-145 12z" />
<glyph unicode="I" horiz-adv-x="620" d="M162 0l258 1470q84 15 159.5 15t141.5 -15l-258 -1470q-84 -12 -156 -12t-145 12z" />
<glyph unicode="J" horiz-adv-x="854" d="M72 2q2 55 9 120.5t38 127.5q73 -19 121.5 -19t83 5.5t64.5 25.5q66 46 87 172l137 785h-231q11 154 45 254h530l-190 -1082q-41 -225 -167 -320.5t-329 -95.5q-97 0 -198 27z" />
<glyph unicode="K" horiz-adv-x="1230" d="M162 0l260 1473q61 12 125 12q113 0 174 -12l-260 -1473q-80 -12 -135 -12q-82 0 -164 12zM618 741l508 732q61 12 128 12q120 0 202 -12l-524 -732l280 -741q-70 -12 -130 -12q-114 0 -185 12z" />
<glyph unicode="L" horiz-adv-x="1001" d="M162 0l258 1473q78 14 150.5 14t144.5 -14l-213 -1215h483q0 -100 -45 -258h-778z" />
<glyph unicode="M" horiz-adv-x="1660" d="M158 0l311 1470q102 17 163 17q20 0 38 -2q64 -8 104 -15l170 -821l477 821q66 15 123 15q110 0 168 -15l-192 -1470q-84 -12 -153 -12t-132 12l137 965l-389 -658q-78 -10 -119 -10q-65 0 -112 10l-134 666l-198 -973q-72 -12 -133 -12t-129 12z" />
<glyph unicode="N" horiz-adv-x="1363" d="M162 0l258 1473q52 12 120 12t130 -12l362 -936l162 936q74 12 126 12q99 0 144 -12l-260 -1473q-72 -12 -127 -12t-119 12l-364 934l-162 -934q-71 -12 -138.5 -12t-131.5 12z" />
<glyph unicode="O" horiz-adv-x="1425" d="M205 524q0 371 183 654q126 198 338 278q108 41 238 41t226 -39t158 -110q125 -143 125 -410q0 -373 -183 -649q-131 -197 -338 -274q-108 -40 -239 -40q-260 0 -384 145.5t-124 403.5zM516 510q0 -285 223 -285q215 0 330 265q90 209 90 464q0 287 -221 287 q-147 0 -252 -130q-125 -154 -160 -453q-10 -80 -10 -148z" />
<glyph unicode="P" horiz-adv-x="1189" d="M162 0l260 1477q45 4 84 8t77 7q63 5 154.5 5t188 -16.5t176.5 -62.5q184 -106 184 -347q0 -265 -172 -431q-177 -171 -479 -171q-56 0 -92 4l-82 -473q-73 -10 -148 -10t-151 10zM588 723q27 -6 84 -6t108 16.5t94 54.5q99 88 99 263q0 111 -71 159q-56 37 -146 37h-30 q-15 0 -46 -4z" />
<glyph unicode="Q" horiz-adv-x="1425" d="M205 524q0 371 183 654q126 198 338 278q108 41 238 41t226 -39t158 -110q125 -143 125 -410q0 -373 -183 -649q-131 -197 -338 -274q-108 -40 -239 -40q-260 0 -384 145.5t-124 403.5zM516 510q0 -285 223 -285q215 0 330 265q90 209 90 464q0 287 -221 287 q-147 0 -252 -130q-125 -154 -160 -453q-10 -80 -10 -148zM872 -274q11 147 62 237l487 -78q-9 -128 -59 -241z" />
<glyph unicode="R" horiz-adv-x="1206" d="M162 0l258 1470q145 27 278 27t231.5 -17.5t176.5 -61.5q172 -97 172 -314q0 -167 -97 -306q-73 -106 -186 -171l-24 -15l219 -612q-86 -12 -166 -12t-150 12l-227 684l35 21q31 18 80 43.5t96 67.5q115 103 115 245q0 99 -69 147q-58 41 -156 41q-43 0 -70 -6 l-219 -1243q-103 -10 -142 -10q-90 0 -155 10z" />
<glyph unicode="S" horiz-adv-x="1087" d="M78 47q14 104 82 254q188 -70 315 -70q205 0 275 127q22 41 22 89.5t-18.5 79t-47 55t-67.5 46.5q-191 105 -277 197.5t-86 204t39 198.5t111 146q148 123 401 123q190 0 367 -67q-19 -131 -86 -238q-59 29 -121.5 47t-131.5 18t-111 -6t-76 -23q-78 -42 -78 -120 t50 -123t124 -87t133 -81t105 -84q96 -95 96 -215t-38 -216.5t-117 -168.5q-173 -158 -486 -158q-193 0 -379 72z" />
<glyph unicode="T" horiz-adv-x="1124" d="M272 1219q0 119 45 254h998q0 -117 -45 -254h-348l-213 -1219q-84 -12 -156 -12t-145 12l213 1219h-349z" />
<glyph unicode="U" horiz-adv-x="1368" d="M242 412q0 102 22 233l146 828q62 12 125 12q116 0 174 -12l-134 -764q-30 -180 -30 -277.5t39 -148t126 -50.5t138 28t87 87q58 94 105 361l134 764q68 12 128 12q114 0 173 -12l-146 -828q-29 -164 -72 -289t-117 -209q-150 -172 -458 -172q-223 0 -331.5 102.5 t-108.5 334.5z" />
<glyph unicode="V" horiz-adv-x="1265" d="M272 1473q82 12 160 12t156 -12l94 -1158l506 1158q74 12 154.5 12t158.5 -12l-698 -1473q-92 -12 -157 -12q-95 0 -189 12z" />
<glyph unicode="W" horiz-adv-x="1824" d="M293 1473q74 12 137 12q130 0 174 -12l4 -1072l424 1072q64 12 122 12q104 0 157 -12l49 -1098l387 1098q56 12 147 12q80 0 146 -12l-594 -1473q-78 -12 -156 -12t-166 12l-53 948l-397 -948l-72 -6q-53 -6 -107 -6t-128 12z" />
<glyph unicode="X" horiz-adv-x="1288" d="M53 0l410 760l-133 715q72 10 166 10q65 0 143 -12l121 -709l-371 -762q-93 -14 -155 -14q-91 0 -181 12zM774 764l354 709q82 12 140 12q116 0 184 -10l-379 -699l199 -776q-94 -12 -146 -12q-90 0 -176 14z" />
<glyph unicode="Y" horiz-adv-x="1153" d="M242 1473q88 12 146 12q110 0 169 -12l158 -654l379 654q68 10 133 10q119 0 184 -10l-600 -947l-92 -526q-65 -12 -128 -12q-115 0 -173 12l92 526z" />
<glyph unicode="Z" horiz-adv-x="1095" d="M47 20l787 1199h-525q0 129 45 254h951l12 -25l-782 -1194h516q2 -31 -2.5 -61.5t-9.5 -63.5q-9 -62 -31 -129h-951z" />
<glyph unicode="[" horiz-adv-x="714" d="M88 -344l340 1933h477q6 -115 -41 -233h-194l-258 -1467h194q0 -113 -41 -233h-477z" />
<glyph unicode="\" horiz-adv-x="1005" d="M256 1473q74 12 142.5 12t146.5 -12l471 -1471q-70 -14 -124 -14q-95 0 -167 14z" />
<glyph unicode="]" horiz-adv-x="702" d="M16 -344q-6 115 41 233h195l258 1467h-195q0 113 41 233h478l-340 -1933h-478z" />
<glyph unicode="^" horiz-adv-x="1095" d="M215 743q109 184 216.5 364.5t215.5 362.5q164 28 279 0q117 -474 176 -727q-63 -14 -115 -14q-108 0 -147 14l-105 445l-248 -447q-66 -12 -116 -12q-99 0 -156 14z" />
<glyph unicode="_" horiz-adv-x="1009" d="M-14 -205q-6 90 32 201h967q7 -96 -35 -201h-964z" />
<glyph unicode="`" horiz-adv-x="1024" d="M455 1473q82 12 176 12t178 -12l182 -252q-115 -20 -181.5 -12t-92.5 12z" />
<glyph unicode="a" horiz-adv-x="1165" d="M147 295q0 148 46.5 291t137.5 254q201 243 541 243q167 0 322 -47l-100 -577q-43 -241 -43 -383v-38q0 -15 2 -34q-68 -12 -129 -12t-131 12q-13 52 -13 88v58q0 20 4 47q-59 -94 -151 -158t-221 -64t-197 86t-68 234zM446 370q0 -162 100 -161h1q98 0 182 120t123 337 l31 174q-27 6 -70 6q-175 0 -281 -172q-86 -142 -86 -304z" />
<glyph unicode="b" horiz-adv-x="1204" d="M158 37l188 1063q37 215 37 288t-4 109q70 12 143.5 12t145.5 -12q10 -31 10 -99.5t-25 -197.5l-51 -285q62 77 112 109q95 59 229 59t211 -98t77 -285q0 -296 -161 -490q-196 -235 -585 -235q-175 0 -327 62zM481 229q32 -12 108 -12t141 42t107 107q81 124 81 293 q0 72 -30 124.5t-113 52.5t-150.5 -80t-98.5 -264z" />
<glyph unicode="c" horiz-adv-x="942" d="M158 401q0 121 40 243t117.5 219.5t191.5 158.5t263.5 61t259.5 -43q-5 -125 -69 -229q-97 39 -182 39t-144.5 -36t-98.5 -94q-79 -115 -79 -292q0 -113 57 -166t148 -53t196 43q51 -82 51 -223q-123 -54 -301 -54q-233 0 -341.5 114t-108.5 312z" />
<glyph unicode="d" horiz-adv-x="1173" d="M147 295q0 148 46.5 291t137.5 254q201 243 541 243l52 -2q41 216 41 298t-4 118q70 12 143 12t145 -12q11 -33 11 -87q0 -82 -25 -210l-133 -741q-43 -241 -43 -383v-38q0 -15 2 -34q-68 -12 -129 -12t-131 12q-13 52 -13 88q0 66 7 113q-97 -157 -261 -211 q-55 -19 -116 -19q-135 0 -203 86t-68 234zM446 370q0 -162 100 -161h1q98 0 182 120t123 337l31 174q-27 6 -70 6q-175 0 -281 -172q-86 -142 -86 -304z" />
<glyph unicode="e" horiz-adv-x="1042" d="M158 410q0 125 43 245.5t121.5 216t192.5 153.5t255 58q219 0 295 -149q25 -49 25 -128t-43 -146.5t-115 -114.5q-139 -91 -352 -121l-138 -23q12 -98 65.5 -146t146 -48t154.5 17.5t132 45.5q55 -68 55 -223q-104 -47 -274 -67q-49 -5 -131 -5t-171 31t-147 88 q-114 109 -114 316zM453 594l106 16q138 21 205 76q49 39 49 87t-25.5 72.5t-73.5 24.5t-92 -23.5t-77 -62.5q-66 -77 -92 -190z" />
<glyph unicode="f" horiz-adv-x="735" d="M-211 -471q10 123 68 221q52 -18 92.5 -18t75 11t64.5 45q63 72 93 249l144 801h-170q0 119 39 221h170l4 16q41 229 157.5 338t309.5 109q107 0 198 -27q-27 -130 -80 -227q-61 18 -104 18t-72.5 -9t-53.5 -31q-42 -40 -75 -187h223q0 -116 -38 -221h-224l-147 -828 q-74 -412 -319 -486q-78 -24 -170.5 -24t-184.5 29z" />
<glyph unicode="g" horiz-adv-x="1169" d="M68 -463q6 112 23.5 155.5t35.5 76.5q96 -29 182 -29t148.5 9t120.5 42q134 75 182 279l31 129q-59 -94 -153.5 -159t-223.5 -65t-198 87.5t-69 235t46.5 289.5t137.5 252.5t227 177t315 66.5t333 -47l-180 -1013q-52 -294 -270 -425q-166 -98 -412 -98q-165 0 -276 37z M446 370q0 -161 100.5 -161t184.5 120t123 337l31 174q-27 6 -70 6q-177 0 -281 -171q-88 -144 -88 -305z" />
<glyph unicode="h" horiz-adv-x="1196" d="M152 0l194 1100q37 215 37 288t-4 109q70 12 143.5 12t145.5 -12q10 -31 10 -99.5t-25 -197.5l-53 -287q53 72 141 120t187 48q260 0 260 -270q0 -48 -14 -139l-119 -672q-78 -12 -150 -12t-141 12l115 649q8 41 8 78q0 111 -103 111q-124 0 -208 -205q-35 -84 -60 -221 l-76 -412q-65 -10 -124 -10q-101 0 -164 10z" />
<glyph unicode="i" horiz-adv-x="638" d="M199 0l147 838h-129l-2 26q0 95 41 195h414l-187 -1059q-78 -12 -144 -12t-140 12zM406 1237v20q0 124 45 252q69 15 151 15q90 0 148 -15q0 -132 -50 -272q-62 -10 -121 -10q-118 0 -173 10z" />
<glyph unicode="j" horiz-adv-x="638" d="M-182 -432q0 92 43 170q54 -14 98.5 -14t78.5 7t62 29q62 46 84 162l162 916h-129l-2 30q0 79 41 191h414l-209 -1188q-35 -197 -158 -284t-303 -87q-94 0 -180 23q-2 12 -2 23v22zM408 1243q-1 15 -1 30q0 110 46 230q86 21 151.5 21t143.5 -21q0 -126 -46 -258 q-74 -18 -128 -18q-110 0 -166 16z" />
<glyph unicode="k" horiz-adv-x="1105" d="M154 0l192 1100q37 215 37 288t-4 109q70 12 143.5 12t145.5 -12q10 -31 10 -99.5t-25 -197.5l-211 -1200q-74 -12 -146.5 -12t-141.5 12zM582 555l215 283q96 127 102 221q64 12 131 12q116 0 184 -12q-6 -53 -37.5 -108.5t-91.5 -139.5l-206 -258l198 -553 q-107 -10 -149 -10q-84 0 -152 10z" />
<glyph unicode="l" horiz-adv-x="663" d="M188 272q0 42 15 127l135 701q41 194 41 325q0 36 -4 72q70 12 143 12t146 -12q10 -31 10 -76q0 -61 -29 -221l-158 -823q-6 -35 -6 -63t9.5 -46t23.5 -28q22 -17 65 -17t76 13q25 -88 25 -132q0 -56 -4 -90q-67 -26 -197.5 -26t-210.5 68.5t-80 215.5z" />
<glyph unicode="m" horiz-adv-x="1767" d="M150 0l110 604q45 252 45 383v38q0 15 -2 34q68 12 117 12q75 0 145 -12q13 -52 13 -89q0 -53 -7 -100q47 88 140.5 149.5t204.5 61.5t171 -48t72 -159q49 86 143.5 146.5t211 60.5t180 -60t63.5 -202q0 -70 -14 -147l-119 -672q-78 -12 -149 -12q-72 0 -142 12l115 649 q8 47 8 95q0 94 -92 94q-119 0 -196 -182q-31 -72 -52 -187l-82 -469q-78 -12 -149 -12q-72 0 -142 12l115 649q8 47 8 95q0 94 -92 94q-180 0 -258 -426l-76 -412q-80 -12 -150.5 -12t-139.5 12z" />
<glyph unicode="n" horiz-adv-x="1198" d="M150 0l110 604q45 252 45 383v38q0 15 -2 34q68 12 117 12q75 0 145 -12q13 -52 13 -89q0 -53 -7 -100q86 147 247 195q54 16 110 16q260 0 260 -270q0 -48 -14 -139l-119 -672q-78 -12 -150 -12t-141 12l115 649q8 41 8 78q0 111 -103 111q-124 0 -208 -205 q-35 -84 -60 -221l-76 -412q-80 -12 -150.5 -12t-139.5 12z" />
<glyph unicode="o" horiz-adv-x="1142" d="M160 389q0 273 147 470q74 99 185.5 161.5t261.5 62.5q213 0 312 -112.5t99 -304.5q0 -278 -145 -472q-165 -219 -451 -219q-211 0 -310 111t-99 303zM451 372.5q0 -175.5 145 -175.5q138 0 218 171q63 134 63 300q0 188 -154 188q-135 0 -213 -176q-59 -132 -59 -307.5z " />
<glyph unicode="p" horiz-adv-x="1204" d="M66 -483l192 1087q45 252 45 383v38q0 15 -2 34q68 12 130 12t134 -12q13 -52 13 -89q0 -51 -7 -93q47 88 143.5 147t229.5 59t210 -98t77 -285q0 -289 -163 -490q-192 -235 -550 -235q-42 0 -80 7l-82 -465q-67 -13 -124 -13q-111 0 -166 13zM481 227q27 -10 105.5 -10 t143.5 42t107 107q81 124 81 293q0 72 -30 124.5t-113 52.5t-150.5 -80t-98.5 -264z" />
<glyph unicode="q" horiz-adv-x="1163" d="M154 299.5q0 147.5 46 289.5t137 251q202 243 542 243q166 0 321 -47l-266 -1519q-67 -13 -123 -13q-108 0 -164 13l109 628q-132 -170 -332 -170q-135 0 -202.5 88.5t-67.5 236zM453 373.5q0 -164.5 99 -164.5t182 120t122 337l31 174q-27 6 -68 6q-174 0 -280 -170 q-86 -138 -86 -302.5z" />
<glyph unicode="r" horiz-adv-x="806" d="M150 0l110 604q45 252 45 383v38q0 15 -2 34q68 12 117 12q75 0 145 -12q13 -52 13 -89q0 -53 -7 -100q43 80 120 138q85 63 186 63q43 0 73 -10q2 -8 2 -17v-18q0 -134 -53 -221q-36 6 -91.5 6t-110 -28.5t-89.5 -80.5q-55 -83 -92 -290l-76 -412q-80 -12 -150.5 -12 t-139.5 12z" />
<glyph unicode="s" horiz-adv-x="911" d="M84 29q6 119 61 221q111 -51 258 -51q127 0 177 67q20 25 20 64q0 68 -108 110l-66 27q-188 68 -188 256q0 168 128 265q124 95 313.5 95t299.5 -57q-9 -119 -70 -211q-95 51 -221 51q-104 0 -144 -48q-16 -21 -16 -52q0 -61 78 -96l80 -35q92 -38 131 -79 q74 -79 74 -180t-41 -176t-110 -125q-140 -100 -367 -100q-163 0 -289 54z" />
<glyph unicode="t" horiz-adv-x="780" d="M162 838q0 119 39 221h157l13 61q14 71 14 174q97 64 281 64q10 -31 10 -71q0 -66 -19 -161l-12 -67h254q0 -104 -39 -221h-254l-71 -404q-4 -29 -7.5 -53.5t-3.5 -62t24.5 -68.5t86 -31t117.5 17q26 -57 26 -149v-7v-32q0 -17 -2 -34q-86 -27 -230 -27q-4 1 -6 1 q-148 0 -230.5 63.5t-82.5 212.5q0 38 15 135l77 439h-157z" />
<glyph unicode="u" horiz-adv-x="1198" d="M197 248q0 48 14 139l119 672q78 12 148.5 12t142.5 -12l-115 -649q-8 -41 -8 -78q0 -111 102 -111q123 0 209 204q35 83 59 222l76 412q80 12 150 12t141 -12l-111 -604q-45 -252 -45 -383v-38q0 -16 2 -34q-68 -12 -130 -12t-132 12q-12 48 -12 86q0 63 6 102 q-85 -145 -247 -194q-54 -17 -109 -17q-123 0 -191.5 62.5t-68.5 208.5z" />
<glyph unicode="v" horiz-adv-x="1087" d="M188 1059q76 12 155 12t157 -12l80 -776l231 499q68 145 68 254v23q70 12 162.5 12t164.5 -12v-10q0 -93 -108 -291l-414 -758q-68 -10 -156 -10q-116 0 -159 10z" />
<glyph unicode="w" horiz-adv-x="1650" d="M199 1059q80 12 141 12q116 0 168 -12l29 -735l305 735q63 12 139 12t149 -12l58 -737l198 460q60 137 60 244l-2 33q68 12 153.5 12t157.5 -12v-8q0 -122 -96 -308l-381 -743q-74 -12 -159 -12t-152 12l-60 674l-289 -674q-100 -10 -177.5 -10t-133.5 10z" />
<glyph unicode="x" horiz-adv-x="1093" d="M47 0q7 87 74 190l229 355l-119 514q70 12 129 12q78 0 156 -12l111 -514l-213 -363q-64 -107 -70 -180q-66 -12 -148.5 -12t-148.5 10zM641 545l190 321q35 57 43.5 105.5t10.5 89.5q55 10 89 10h82q47 0 109 -10q0 -39 -9 -96.5t-54 -126.5l-184 -281l129 -557 q-84 -12 -156 -12t-141 12z" />
<glyph unicode="y" horiz-adv-x="1110" d="M55 -475q9 132 58 215q43 -19 78 -19t67.5 5.5t70.5 31.5q90 60 165 222l10 22q-35 -6 -80 -6h-72q-26 0 -47 4l-96 1059q76 12 153 12t148 -12l55 -926q312 655 324 823q2 27 2 50t-6 53q70 12 152.5 12t154.5 -12q6 -18 6 -48t-9 -72t-23 -84q-14 -45 -61 -161 q-67 -161 -388 -815q-163 -329 -377 -367q-64 -12 -132 -12t-153 25z" />
<glyph unicode="z" horiz-adv-x="958" d="M35 25l606 811h-397q0 132 41 223h800l7 -25l-609 -811h457q0 -110 -39 -223h-854z" />
<glyph unicode="{" horiz-adv-x="790" d="M190 623l9 49q110 48 161 122q50 69 78 201l29 179q25 106 57.5 189t85.5 138q110 113 334 113q45 0 72 -8q0 -89 -45 -224q-10 2 -19 2h-16q-108 0 -150 -68q-29 -46 -54.5 -183.5t-46.5 -220.5t-49 -138q-51 -100 -149 -143q53 -29 82 -79t29 -149q0 -36 -20 -143 q-37 -207 -37 -263t29.5 -84t107.5 -28h29q0 -108 -37 -219q-20 -4 -40 -4h-38q-174 0 -251 74t-77 217q0 70 15 158l32 188q8 46 8 104q0 142 -129 220z" />
<glyph unicode="|" horiz-adv-x="692" d="M143 -344l340 1931q153 31 281 0l-340 -1931q-74 -12 -143.5 -12t-137.5 12z" />
<glyph unicode="}" horiz-adv-x="772" d="M2 -319q0 91 45 223q10 -2 19 -2h16q105 0 148 68q29 45 59 198q39 237 93 344q51 99 148 143q-53 29 -81.5 79t-28.5 115t9 117t19 110q29 159 29 214t-29.5 83t-107.5 28h-29q0 110 37 219q20 4 40 4h38q174 0 251 -73.5t77 -217.5q0 -55 -15 -157l-32 -189 q-9 -52 -9 -92q0 -151 129 -231l-8 -50q-110 -48 -161 -122q-50 -69 -78 -201l-29 -178q-54 -236 -143 -328q-110 -113 -334 -113q-45 0 -72 9z" />
<glyph unicode="~" horiz-adv-x="1046" d="M205 864q93 81 224 112q46 11 95 11t90 -13t78 -28q97 -41 169 -41t153 70q74 -82 114 -182q-79 -79 -226 -108q-46 -9 -92 -9t-86 12t-77 28q-101 42 -173.5 42t-156.5 -70q-35 43 -65.5 84t-46.5 92z" />
<glyph unicode="&#xa1;" horiz-adv-x="612" d="M76 -418l200 1002q76 12 143 12t134 -12l-162 -1002q-65 -12 -131 -12q-126 0 -184 12zM297 756q0 138 51 299q72 14 153 14t146 -14q0 -146 -51 -299q-77 -15 -153.5 -15t-145.5 15z" />
<glyph unicode="&#xa2;" d="M307 401q0 237 137 433q147 212 394 243l39 223q95 25 178 0l-39 -223q88 -10 164 -37q-5 -127 -70 -229q-98 39 -184 39t-144.5 -40t-97.5 -102q-78 -122 -78 -257.5t57.5 -188.5t148.5 -53t196 43q51 -82 51 -223q-102 -45 -238 -52l-37 -219q-47 -12 -91 -12t-87 12 l39 226q-338 52 -338 417z" />
<glyph unicode="&#xa3;" d="M160 29l30 22q183 140 234 384q16 77 16 155h-192q0 106 39 221h149q-6 55 -6 139t33 186.5t101 177.5q143 159 411 159q184 0 360 -76q-23 -109 -102 -230q-53 23 -115.5 42.5t-152.5 19.5q-127 0 -181.5 -77t-54.5 -224q0 -74 6 -117h322q7 -98 -39 -221h-281 q0 -157 -110 -332h528q0 -100 -45 -258h-946z" />
<glyph unicode="&#xa4;" d="M199 334l143 143q-59 100 -59 224t63 227l-147 149q47 98 163 164l152 -151q102 57 222 57t222 -57l150 151q116 -77 162 -162l-146 -143q70 -109 70 -235t-66 -230l142 -139q-74 -112 -162 -162l-143 145q-102 -59 -229.5 -59t-229.5 59l-144 -145q-96 45 -163 164z M530 700q0 -86 60 -152q60 -65 148 -65q44 0 82 17.5t66 47.5q60 66 60 152q0 91 -60 157q-60 65 -149 65q-87 0 -147 -65q-60 -66 -60 -157z" />
<glyph unicode="&#xa5;" d="M164 319q-9 89 31 175h340l24 143h-340q0 94 31 174h237l-204 637q88 12 151 12q86 0 160 -12l151 -561l351 561q82 12 168 12q63 0 145 -12l-416 -637h269q6 -39 -4.5 -90t-26.5 -84h-375l-25 -143h375q0 -86 -30 -175h-375l-58 -321q-152 -22 -297 0l58 321h-340z" />
<glyph unicode="&#xa6;" horiz-adv-x="694" d="M143 -344l121 686q74 12 144 12t137 -12l-121 -686q-74 -12 -143.5 -12t-137.5 12zM362 903l121 686q153 25 281 0l-121 -686q-72 -12 -141 -12q-70 0 -140 12z" />
<glyph unicode="&#xa7;" horiz-adv-x="1187" d="M190 33q21 91 103 213q108 -53 242 -53q159 0 213 49q28 24 28 61t-22.5 50.5t-69.5 29.5l-207 70q-180 62 -180 225q0 88 48 155.5t120 133.5q-41 51 -41 135t41 155.5t109 118.5q139 97 331 97q182 0 334 -58q-24 -105 -104 -213q-108 53 -224 53q-133 0 -181 -47 q-21 -22 -21 -58t22.5 -52.5t69.5 -32.5l209 -68q104 -35 140 -93t36 -122q0 -167 -168 -309q43 -49 43 -135t-48 -155.5t-123 -116.5q-148 -91 -351 -91q-197 0 -349 58zM547 736q0 -68 90 -95l201 -61q31 25 63.5 59.5t32.5 73.5t-23.5 63.5t-87.5 42.5l-186 53 q-90 -68 -90 -136z" />
<glyph unicode="&#xa8;" horiz-adv-x="1024" d="M332 1214q5 143 43 242q66 12 133 12q69 0 131 -12q-4 -137 -43 -242q-58 -10 -137 -10t-127 10zM784 1214q-4 126 43 242q66 12 134 12q69 0 131 -12q-9 -136 -43 -242q-58 -10 -136 -10q-81 0 -129 10z" />
<glyph unicode="&#xa9;" horiz-adv-x="1683" d="M205 735q0 162 55 302.5t154.5 241.5t240 159.5t310.5 58.5q338 0 549 -217q210 -215 210 -545t-210 -543q-99 -102 -239 -160.5t-310 -58.5t-310.5 58.5t-240.5 160.5q-209 213 -209 543zM369 735q0 -264 159 -434q164 -176 437 -176q272 0 437 176q159 169 159 434 t-159 434q-166 177 -437 177q-272 0 -437 -177q-159 -170 -159 -434zM602 737q0 178 100 297q108 127 285 127q121 0 221 -39q0 -112 -37 -184q-83 27 -164 27t-130.5 -58.5t-49.5 -172.5t52.5 -169t137.5 -55t159 29q43 -71 43 -185q-95 -37 -207.5 -37t-186 34t-123.5 91 q-100 114 -100 295z" />
<glyph unicode="&#xaa;" horiz-adv-x="1024" d="M254 845q0 116 38 229.5t112 201.5q162 194 438 194q152 0 270 -36l-80 -455q-33 -210 -33 -264v-65q0 -13 2 -29q-65 -9 -120 -9q-49 0 -101 9q-10 30 -10 65v50q0 16 4 36q-111 -174 -289 -174q-117 0 -174 65.5t-57 181.5zM508 909.5q0 -127.5 78 -127.5t146.5 100.5 t96.5 272.5l21 123q-21 6 -53 6q-140 0 -221 -135q-68 -112 -68 -239.5z" />
<glyph unicode="&#xab;" horiz-adv-x="1329" d="M178 551l430 448q150 29 318 0l-437 -467l256 -442q-80 -12 -157.5 -12t-141.5 12zM725 551l430 448q150 29 318 0l-437 -467l256 -442q-80 -12 -157.5 -12t-141.5 12z" />
<glyph unicode="&#xac;" d="M256 724q0 65 12 126h875v-590q-61 -12 -126 -12t-126 12v338h-623q-12 61 -12 126z" />
<glyph unicode="&#xad;" horiz-adv-x="749" d="M207 475q0 113 43 252h512q4 -112 -43 -252h-512z" />
<glyph unicode="&#xae;" horiz-adv-x="1683" d="M205 735q0 162 55 302.5t154.5 241.5t240 159.5t310.5 58.5q338 0 549 -217q210 -215 210 -545t-210 -543q-99 -102 -239 -160.5t-310 -58.5t-310.5 58.5t-240.5 160.5q-209 213 -209 543zM369 735q0 -264 159 -434q164 -176 437 -176q272 0 437 176q159 169 159 434 t-159 434q-166 177 -437 177q-272 0 -437 -177q-159 -170 -159 -434zM690 360v783q114 20 230 20q195 0 278.5 -68.5t83.5 -181.5q0 -70 -27.5 -124t-62.5 -82l-31 -25l180 -320q-58 -8 -107 -8q-74 0 -124 8l-184 359l32 20q47 29 78 63t31 82t-28.5 77.5t-73 29.5 t-74.5 -6v-627q-41 -8 -94 -8t-107 8z" />
<glyph unicode="&#xaf;" horiz-adv-x="1024" d="M410 1241q-8 105 34 207h543q8 -102 -35 -207h-542z" />
<glyph unicode="&#xb0;" horiz-adv-x="772" d="M225 1178q0 129 90 219t217 90q129 0 221 -90q91 -89 91 -219q0 -125 -91 -216q-90 -90 -221 -90q-129 0 -217 90q-90 92 -90 216zM406 1178q0 -59 36.5 -96.5t89.5 -37.5t92.5 37t39.5 97q0 59 -39 98t-93 39q-53 0 -89.5 -39t-36.5 -98z" />
<glyph unicode="&#xb1;" d="M201 0q0 125 43 248h284l62 352h-318q0 119 43 248h318l65 362q133 26 256 0l-65 -362h317q7 -108 -43 -248h-317l-62 -352h334q8 -125 -43 -248h-874z" />
<glyph unicode="&#xb2;" horiz-adv-x="921" d="M203 662l313 301q57 55 105.5 109t48.5 112q0 92 -97 92q-79 0 -184 -49q-45 99 -51 174q146 72 290 72t218 -67t74 -171q0 -147 -130 -273q-38 -38 -83 -81l-66 -62h246q0 -103 -35 -194h-641z" />
<glyph unicode="&#xb3;" horiz-adv-x="921" d="M242 653q16 93 82 168q53 -18 94 -29.5t83 -11.5t72.5 7.5t54.5 22.5q54 33 54 85.5t-34 73t-77 20.5t-92 -14l-35 45l226 244h-279q0 93 31 184h541l14 -41l-238 -285q86 -14 130 -68.5t44 -131t-31.5 -136t-87.5 -100.5q-113 -84 -282 -84q-147 0 -270 51z" />
<glyph unicode="&#xb4;" horiz-adv-x="1024" d="M455 1221l209 252q82 12 160 12q112 0 194 -12l-289 -252q-88 -13 -147.5 -13t-126.5 13z" />
<glyph unicode="&#xb5;" horiz-adv-x="1193" d="M39 -485l272 1544q70 12 143 12t144 -12l-100 -551q-21 -122 -21 -158q0 -78 38 -113.5t120 -35.5q155 0 203 243l110 615q68 12 142 12t145 -12l-191 -1061q-58 -10 -95 -10q-76 0 -126 12q-8 61 2 133q-96 -158 -258 -158q-55 0 -96 19.5t-59 46.5l-90 -526 q-71 -11 -127 -11q-101 0 -156 11z" />
<glyph unicode="&#xb6;" horiz-adv-x="1261" d="M276 987q0 271 226 397q187 105 506 101l-252 -1495q-163 0 -203 16l106 635q-264 21 -351 191q-32 63 -32 155zM891 -12l252 1497q167 0 205 -15l-246 -1468q-47 -14 -211 -14z" />
<glyph unicode="&#xb7;" horiz-adv-x="591" d="M233 438q0 141 52 299q72 14 153 14t146 -14q0 -141 -52 -299q-72 -14 -153 -14t-146 14z" />
<glyph unicode="&#xb8;" horiz-adv-x="1024" d="M246 -457q19 80 57 131q84 -24 127 -24q121 0 121 65q0 35 -27.5 47.5t-87.5 12.5t-108 -19l-13 15l146 278h137l-86 -158q16 4 49 5q80 0 127 -43t47 -116t-27.5 -116t-71.5 -69q-80 -46 -212 -46q-59 0 -109.5 11.5t-68.5 25.5z" />
<glyph unicode="&#xb9;" horiz-adv-x="921" d="M293 625q-9 110 35 192h164l63 363l-154 -58q-56 79 -67 176l409 160h84l-110 -641h174q10 -113 -35 -192h-563z" />
<glyph unicode="&#xba;" horiz-adv-x="1024" d="M274 924q0 211 118 367q133 177 364 177q174 0 255 -88t81 -241q0 -218 -118 -370q-133 -173 -364 -173q-174 0 -255 87t-81 241zM524.5 911q0.5 -131 107 -131t164.5 132q48 107 48 237.5t-113 130.5q-103 0 -161 -134q-46 -104 -45.5 -235z" />
<glyph unicode="&#xbb;" horiz-adv-x="1345" d="M72 90l442 479l-262 430q171 26 299 0l270 -471l-424 -438q-66 -12 -127 -12q-116 0 -198 12zM617 90l442 479l-262 430q171 26 299 0l270 -471l-424 -438q-66 -12 -127 -12q-116 0 -198 12z" />
<glyph unicode="&#xbc;" horiz-adv-x="2150" d="M293 625q-9 110 35 192h164l63 363l-154 -58q-56 79 -67 176l409 160h84l-110 -641h174q10 -113 -35 -192h-563zM618 4l990 1448q70 12 138 12t146 -12l-991 -1448q-72 -12 -139.5 -12t-143.5 12zM1330 188l432 668q109 -13 188 -78l-313 -463h155l29 160q35 6 94 6 t103 -6l-27 -160h84q4 -80 -27 -164h-84l-24 -149q-61 -9 -110.5 -9t-88.5 9l25 149h-422z" />
<glyph unicode="&#xbd;" horiz-adv-x="2150" d="M293 625q-9 110 35 192h164l63 363l-154 -58q-56 79 -67 176l409 160h84l-110 -641h174q10 -113 -35 -192h-563zM583 4l990 1448q70 12 138 12t146 -12l-991 -1448q-72 -12 -139.5 -12t-143.5 12zM1397 39l313 301q57 55 105.5 109t48.5 112q0 92 -97 92q-79 0 -184 -49 q-45 99 -51 174q146 72 290 72t218 -67t74 -171q0 -147 -130 -273q-38 -38 -83 -81l-66 -62h246q0 -103 -35 -194h-641z" />
<glyph unicode="&#xbe;" horiz-adv-x="2150" d="M242 653q16 93 82 168q53 -18 94 -29.5t83 -11.5t72.5 7.5t54.5 22.5q54 33 54 85.5t-34 73t-77 20.5t-92 -14l-35 45l226 244h-279q0 93 31 184h541l14 -41l-238 -285q86 -14 130 -68.5t44 -131t-31.5 -136t-87.5 -100.5q-113 -84 -282 -84q-147 0 -270 51zM555 4 l990 1448q70 12 138 12t146 -12l-991 -1448q-72 -12 -139.5 -12t-143.5 12zM1285 188l432 668q109 -13 188 -78l-313 -463h155l29 160q35 6 94 6t103 -6l-27 -160h84q4 -80 -27 -164h-84l-24 -149q-61 -9 -110.5 -9t-88.5 9l25 149h-422z" />
<glyph unicode="&#xbf;" horiz-adv-x="907" d="M78 -94q0 167 112 304q110 135 281 198l33 186q70 12 120 12q102 0 148 -12l-61 -352q-203 -35 -294 -172q-34 -52 -34 -121q0 -70 52 -107t147.5 -37t230.5 48q53 -104 61 -232q-153 -61 -359 -61t-321.5 88t-115.5 258zM520 758q0 138 51 299q72 14 154 14t145 -14 q0 -144 -51 -299q-77 -15 -153.5 -15t-145.5 15z" />
<glyph unicode="&#xc0;" horiz-adv-x="1296" d="M51 0l688 1473q82 12 170 12t172 -12l181 -1473q-78 -12 -150 -12t-154 12l-26 297h-449l-131 -297q-74 -12 -152.5 -12t-148.5 12zM566 1829q10 2 31.5 3t48.5 3q55 4 108 4q107 0 170 -10l180 -238q-48 -12 -137 -12q-91 0 -131 8zM594 543h315l-53 590z" />
<glyph unicode="&#xc1;" horiz-adv-x="1296" d="M51 0l688 1473q82 12 170 12t172 -12l181 -1473q-78 -12 -150 -12t-154 12l-26 297h-449l-131 -297q-74 -12 -152.5 -12t-148.5 12zM594 543h315l-53 590zM721 1591l227 219q69 11 143 11q151 0 202 -11l-291 -221q-40 -8 -140 -8q-101 0 -141 10z" />
<glyph unicode="&#xc2;" horiz-adv-x="1296" d="M51 0l688 1473q82 12 170 12t172 -12l181 -1473q-78 -12 -150 -12t-154 12l-26 297h-449l-131 -297q-74 -12 -152.5 -12t-148.5 12zM584 1599l245 224q87 10 143 10q120 0 179 -12l155 -222q-49 -12 -105 -12q-114 0 -169 15l-61 100l-105 -100q-54 -15 -140.5 -15 t-141.5 12zM594 543h315l-53 590z" />
<glyph unicode="&#xc3;" horiz-adv-x="1296" d="M51 0l688 1473q82 12 170 12t172 -12l181 -1473q-78 -12 -150 -12t-154 12l-26 297h-449l-131 -297q-74 -12 -152.5 -12t-148.5 12zM581 1741q41 45 106.5 79.5t123 34.5t91.5 -11t67 -24q85 -36 130.5 -36t77 9t78.5 48q64 -74 72 -151q-43 -45 -108.5 -78t-123 -33 t-92.5 11.5t-68 24.5q-93 36 -135.5 36t-71 -11.5t-75.5 -46.5q-23 25 -45.5 67t-26.5 81zM594 543h315l-53 590z" />
<glyph unicode="&#xc4;" horiz-adv-x="1296" d="M51 0l688 1473q82 12 170 12t172 -12l181 -1473q-78 -12 -150 -12t-154 12l-26 297h-449l-131 -297q-74 -12 -152.5 -12t-148.5 12zM559 1591q4 138 43 242q66 12 133 12q71 0 131 -12q-4 -142 -43 -242q-58 -10 -137 -10t-127 10zM594 543h315l-53 590zM1012 1591 q-4 131 43 242q66 12 133 12q69 0 131 -12q-9 -136 -43 -242q-58 -10 -135 -10q-81 0 -129 10z" />
<glyph unicode="&#xc5;" horiz-adv-x="1325" d="M57 0l688 1473q-67 67 -67 143.5t21.5 128t58.5 90.5q78 82 196 82t179 -65.5t61 -161.5q0 -136 -107 -222l181 -1468q-78 -12 -150 -12t-153 12l-27 297h-449l-131 -297q-74 -12 -152.5 -12t-148.5 12zM600 543h315l-51 606zM836 1649q0 -111 86 -111q53 0 82.5 42 t29.5 97q0 111 -84 111q-55 0 -84.5 -40t-29.5 -99z" />
<glyph unicode="&#xc6;" horiz-adv-x="1869" d="M0 0l987 1473h1024l2 -33q0 -105 -47 -221h-508l-55 -320h403q0 -123 -45 -256h-403l-70 -389h522l2 -31q0 -83 -45 -223h-821l53 303h-467l-206 -303q-74 -12 -172 -12q-84 0 -154 12zM700 551h342l121 692h-12z" />
<glyph unicode="&#xc7;" horiz-adv-x="1175" d="M213 525.5q0 214.5 59.5 388t167 304t259 205t335.5 74.5q96 0 171 -11t155 -48q-23 -121 -86 -240q-111 43 -234.5 43t-222 -59.5t-161.5 -154.5q-121 -185 -121 -460q0 -331 335 -331q97 0 148 15t90 28q44 -101 53 -248q-100 -39 -255 -53q-40 -3 -68 -3l-45 -84 q16 4 49 5q80 0 127 -43t47 -116t-27.5 -116t-72.5 -69q-81 -46 -211 -46q-59 0 -109.5 11.5t-69.5 25.5q20 81 58 131q84 -24 127 -24q120 0 120 65q0 35 -27.5 47.5t-86.5 12.5t-109 -19l-12 15l109 211q-248 29 -370 179t-122 364.5z" />
<glyph unicode="&#xc8;" horiz-adv-x="1085" d="M162 0l258 1473h807l2 -33q0 -99 -47 -221h-508l-56 -320h404q0 -123 -45 -256h-404l-69 -389h522l2 -31q0 -75 -45 -223h-821zM494 1829q10 2 31.5 3t48.5 3q55 4 108 4q107 0 170 -10l180 -238q-48 -12 -137 -12q-91 0 -131 8z" />
<glyph unicode="&#xc9;" horiz-adv-x="1085" d="M162 0l258 1473h807l2 -33q0 -99 -47 -221h-508l-56 -320h404q0 -123 -45 -256h-404l-69 -389h522l2 -31q0 -75 -45 -223h-821zM649 1591l227 219q69 11 143 11q151 0 202 -11l-291 -221q-40 -8 -140 -8q-101 0 -141 10z" />
<glyph unicode="&#xca;" horiz-adv-x="1085" d="M162 0l258 1473h807l2 -33q0 -99 -47 -221h-508l-56 -320h404q0 -123 -45 -256h-404l-69 -389h522l2 -31q0 -75 -45 -223h-821zM498 1599l245 224q87 10 143 10q120 0 179 -12l155 -222q-49 -12 -105 -12q-114 0 -169 15l-61 100l-105 -100q-54 -15 -140.5 -15t-141.5 12 z" />
<glyph unicode="&#xcb;" horiz-adv-x="1085" d="M162 0l258 1473h807l2 -33q0 -99 -47 -221h-508l-56 -320h404q0 -123 -45 -256h-404l-69 -389h522l2 -31q0 -75 -45 -223h-821zM500 1591q4 138 43 242q66 12 133 12q71 0 131 -12q-4 -142 -43 -242q-58 -10 -137 -10t-127 10zM953 1591q-4 131 43 242q66 12 133 12 q69 0 131 -12q-9 -136 -43 -242q-58 -10 -135 -10q-81 0 -129 10z" />
<glyph unicode="&#xcc;" horiz-adv-x="620" d="M162 0l258 1470q169 30 301 0l-258 -1470q-84 -12 -156 -12t-145 12zM271 1829q10 2 31.5 3t48.5 3q55 4 108 4q107 0 170 -10l180 -238q-48 -12 -137 -12q-91 0 -131 8z" />
<glyph unicode="&#xcd;" horiz-adv-x="620" d="M162 0l258 1470q169 30 301 0l-258 -1470q-84 -12 -156 -12t-145 12zM397 1591l227 219q69 11 143 11q151 0 202 -11l-291 -221q-40 -8 -140 -8q-101 0 -141 10z" />
<glyph unicode="&#xce;" horiz-adv-x="620" d="M162 0l258 1470q169 30 301 0l-258 -1470q-84 -12 -156 -12t-145 12zM250 1599l245 224q87 10 143 10q120 0 179 -12l155 -222q-49 -12 -105 -12q-114 0 -169 15l-61 100l-105 -100q-54 -15 -140.5 -15t-141.5 12z" />
<glyph unicode="&#xcf;" horiz-adv-x="620" d="M162 0l258 1470q169 30 301 0l-258 -1470q-84 -12 -156 -12t-145 12zM252 1591q4 138 43 242q66 12 133 12q71 0 131 -12q-4 -142 -43 -242q-58 -10 -137 -10t-127 10zM705 1591q-4 131 43 242q66 12 133 12q69 0 131 -12q-9 -136 -43 -242q-58 -10 -135 -10 q-81 0 -129 10z" />
<glyph unicode="&#xd0;" horiz-adv-x="1429" d="M156 653q-9 113 32 207h148l108 610q221 27 365 27t269.5 -41t213.5 -118q183 -159 183 -441q0 -434 -265 -682q-256 -240 -675 -240q-149 0 -349 25l115 653h-145zM528 238q37 -6 128.5 -6.5t186.5 47t165 131.5q145 176 145 458q0 184 -95 281q-88 90 -237 90 q-74 0 -116 -6l-66 -373h274q8 -104 -34 -207h-277z" />
<glyph unicode="&#xd1;" horiz-adv-x="1363" d="M162 0l258 1473q52 12 120 12t130 -12l362 -936l162 936q74 12 126 12q99 0 144 -12l-260 -1473q-72 -12 -127 -12t-119 12l-364 934l-162 -934q-142 -24 -270 0zM618 1741q41 45 106.5 79.5t123 34.5t91.5 -11t67 -24q85 -36 130.5 -36t77 9t78.5 48q64 -74 72 -151 q-43 -45 -108.5 -78t-123 -33t-92.5 11.5t-68 24.5q-93 36 -135.5 36t-71 -11.5t-75.5 -46.5q-23 25 -45.5 67t-26.5 81z" />
<glyph unicode="&#xd2;" horiz-adv-x="1425" d="M205 524q0 371 183 654q126 198 338 278q108 41 238 41t226 -39t158 -110q125 -143 125 -410q0 -373 -183 -649q-131 -197 -338 -274q-108 -40 -239 -40q-260 0 -384 145.5t-124 403.5zM516 510q0 -285 223 -285q215 0 330 265q90 209 90 464q0 287 -221 287 q-147 0 -252 -130q-125 -154 -160 -453q-10 -80 -10 -148zM705 1829q10 2 31.5 3t48.5 3q55 4 108 4q107 0 170 -10l180 -238q-48 -12 -137 -12q-91 0 -131 8z" />
<glyph unicode="&#xd3;" horiz-adv-x="1425" d="M205 524q0 371 183 654q126 198 338 278q108 41 238 41t226 -39t158 -110q125 -143 125 -410q0 -373 -183 -649q-131 -197 -338 -274q-108 -40 -239 -40q-260 0 -384 145.5t-124 403.5zM516 510q0 -285 223 -285q215 0 330 265q90 209 90 464q0 287 -221 287 q-147 0 -252 -130q-125 -154 -160 -453q-10 -80 -10 -148zM782 1591l227 219q69 11 143 11q151 0 202 -11l-291 -221q-40 -8 -140 -8q-101 0 -141 10z" />
<glyph unicode="&#xd4;" horiz-adv-x="1425" d="M205 524q0 371 183 654q126 198 338 278q108 41 238 41t226 -39t158 -110q125 -143 125 -410q0 -373 -183 -649q-131 -197 -338 -274q-108 -40 -239 -40q-260 0 -384 145.5t-124 403.5zM516 510q0 -285 223 -285q215 0 330 265q90 209 90 464q0 287 -221 287 q-147 0 -252 -130q-125 -154 -160 -453q-10 -80 -10 -148zM650 1599l245 224q87 10 143 10q120 0 179 -12l155 -222q-49 -12 -105 -12q-114 0 -169 15l-61 100l-105 -100q-54 -15 -140.5 -15t-141.5 12z" />
<glyph unicode="&#xd5;" horiz-adv-x="1425" d="M205 524q0 371 183 654q126 198 338 278q108 41 238 41t226 -39t158 -110q125 -143 125 -410q0 -373 -183 -649q-131 -197 -338 -274q-108 -40 -239 -40q-260 0 -384 145.5t-124 403.5zM516 510q0 -285 223 -285q215 0 330 265q90 209 90 464q0 287 -221 287 q-147 0 -252 -130q-125 -154 -160 -453q-10 -80 -10 -148zM659 1741q41 45 106.5 79.5t123 34.5t91.5 -11t67 -24q85 -36 130.5 -36t77 9t78.5 48q64 -74 72 -151q-43 -45 -108.5 -78t-123 -33t-92.5 11.5t-68 24.5q-93 36 -135.5 36t-71 -11.5t-75.5 -46.5q-23 25 -45.5 67 t-26.5 81z" />
<glyph unicode="&#xd6;" horiz-adv-x="1425" d="M205 524q0 371 183 654q126 198 338 278q108 41 238 41t226 -39t158 -110q125 -143 125 -410q0 -373 -183 -649q-131 -197 -338 -274q-108 -40 -239 -40q-260 0 -384 145.5t-124 403.5zM516 510q0 -285 223 -285q215 0 330 265q90 209 90 464q0 287 -221 287 q-147 0 -252 -130q-125 -154 -160 -453q-10 -80 -10 -148zM649 1591q4 138 43 242q66 12 133 12q71 0 131 -12q-4 -142 -43 -242q-58 -10 -137 -10t-127 10zM1102 1591q-4 131 43 242q66 12 133 12q69 0 131 -12q-9 -136 -43 -242q-58 -10 -135 -10q-81 0 -129 10z" />
<glyph unicode="&#xd7;" d="M289 485l270 228l-182 223q92 108 207 176l182 -223l264 225q95 -70 160 -192l-266 -228l178 -213q-37 -44 -80 -81q-76 -65 -125 -93l-178 213l-270 -229q-23 16 -50.5 45t-46.5 52q-27 30 -63 97z" />
<glyph unicode="&#xd8;" horiz-adv-x="1425" d="M145 -35l152 195q-92 137 -92 364q0 371 183 654q126 198 338 278q108 41 239 41q190 0 309 -84l65 84q40 10 89 10t94 -10l-146 -186q96 -143 97 -373q0 -373 -183 -649q-131 -197 -338 -274q-108 -40 -239 -40q-194 0 -314 82l-71 -92q-31 -8 -66 -8q-79 0 -117 8z M516 476q0 -15 2 -32l576 738q-55 59 -145.5 59t-153 -36t-109.5 -94t-80 -135t-52 -158q-38 -162 -38 -308v-34zM580 287q55 -61 147 -61.5t154.5 35.5t108.5 94.5t79 135t53 157.5q37 156 37 306q0 40 -4 72z" />
<glyph unicode="&#xd9;" horiz-adv-x="1368" d="M242 412q0 102 22 233l146 828q62 12 125 12q116 0 174 -12l-134 -764q-30 -180 -30 -277.5t39 -148t126 -50.5t138 28t87 87q58 94 105 361l134 764q68 12 128 12q114 0 173 -12l-146 -828q-29 -164 -72 -289t-117 -209q-150 -172 -458 -172q-223 0 -331.5 102.5 t-108.5 334.5zM633 1829q10 2 31.5 3t48.5 3q55 4 108 4q107 0 170 -10l180 -238q-48 -12 -137 -12q-91 0 -131 8z" />
<glyph unicode="&#xda;" horiz-adv-x="1368" d="M242 412q0 102 22 233l146 828q62 12 125 12q116 0 174 -12l-134 -764q-30 -180 -30 -277.5t39 -148t126 -50.5t138 28t87 87q58 94 105 361l134 764q68 12 128 12q114 0 173 -12l-146 -828q-29 -164 -72 -289t-117 -209q-150 -172 -458 -172q-223 0 -331.5 102.5 t-108.5 334.5zM788 1591l227 219q69 11 143 11q151 0 202 -11l-291 -221q-40 -8 -140 -8q-101 0 -141 10z" />
<glyph unicode="&#xdb;" horiz-adv-x="1368" d="M242 412q0 102 22 233l146 828q62 12 125 12q116 0 174 -12l-134 -764q-30 -180 -30 -277.5t39 -148t126 -50.5t138 28t87 87q58 94 105 361l134 764q68 12 128 12q114 0 173 -12l-146 -828q-29 -164 -72 -289t-117 -209q-150 -172 -458 -172q-223 0 -331.5 102.5 t-108.5 334.5zM625 1599l245 224q87 10 143 10q120 0 179 -12l155 -222q-49 -12 -105 -12q-114 0 -169 15l-61 100l-105 -100q-54 -15 -140.5 -15t-141.5 12z" />
<glyph unicode="&#xdc;" horiz-adv-x="1368" d="M242 412q0 102 22 233l146 828q62 12 125 12q116 0 174 -12l-134 -764q-30 -180 -30 -277.5t39 -148t126 -50.5t138 28t87 87q58 94 105 361l134 764q68 12 128 12q114 0 173 -12l-146 -828q-29 -164 -72 -289t-117 -209q-150 -172 -458 -172q-223 0 -331.5 102.5 t-108.5 334.5zM629 1591q4 138 43 242q66 12 133 12q71 0 131 -12q-4 -142 -43 -242q-58 -10 -137 -10t-127 10zM1082 1591q-4 131 43 242q66 12 133 12q69 0 131 -12q-9 -136 -43 -242q-58 -10 -135 -10q-81 0 -129 10z" />
<glyph unicode="&#xdd;" horiz-adv-x="1153" d="M242 1473q88 12 146 12q110 0 169 -12l158 -654l379 654q68 10 133 10q119 0 184 -10l-600 -947l-92 -526q-65 -12 -128 -12q-115 0 -173 12l92 526zM684 1591l227 219q69 11 143 11q151 0 202 -11l-291 -221q-40 -8 -140 -8q-101 0 -141 10z" />
<glyph unicode="&#xde;" horiz-adv-x="1218" d="M176 0l260 1477q78 8 130 8q99 0 169 -8l-43 -228q232 0 370 -81q193 -112 193 -359q0 -257 -172 -419q-180 -169 -479 -169q-56 0 -92 4l-37 -225q-146 -21 -299 0zM557 475q27 -6 84 -6t108.5 16.5t94.5 54.5q98 87 98 253q0 114 -70 167q-53 39 -147 39h-31 q-14 0 -45 -4z" />
<glyph unicode="&#xdf;" horiz-adv-x="1236" d="M-238 -471q10 123 68 221q52 -18 92.5 -18t75.5 11t64 45q63 72 94 249l182 1022q66 369 322 439q85 24 192 24q195 0 300 -100q85 -81 85 -214q0 -94 -39 -159.5t-87 -117.5t-87 -97.5t-39 -94.5t36 -85t79 -77.5t78.5 -99t35.5 -144.5t-31.5 -152.5t-88.5 -111.5 q-115 -94 -281.5 -94t-269.5 45q36 124 96 222q64 -41 138.5 -41t117.5 30.5t43 86t-37 89t-81 69.5t-81 82t-37 123t41 138.5t91.5 116.5t91.5 110.5t41 115.5t-42 93t-113 33t-116 -44t-67 -173l-193 -1061q-74 -413 -319 -486q-78 -24 -170 -24t-185 29z" />
<glyph unicode="&#xe0;" horiz-adv-x="1165" d="M147 295q0 148 46.5 291t137.5 254q201 243 541 243q167 0 322 -47l-100 -577q-43 -241 -43 -383v-38q0 -15 2 -34q-68 -12 -129 -12t-131 12q-13 52 -13 88v58q0 20 4 47q-59 -94 -151 -158t-221 -64t-197 86t-68 234zM446 370.5q0 -162.5 101 -161.5q98 0 182 120 t123 337l31 174q-27 6 -70 6q-175 0 -281 -172q-86 -141 -86 -303.5zM525 1473q82 12 176 12t178 -12l182 -252q-115 -20 -181.5 -12t-92.5 12z" />
<glyph unicode="&#xe1;" horiz-adv-x="1165" d="M147 295q0 148 46.5 291t137.5 254q201 243 541 243q167 0 322 -47l-100 -577q-43 -241 -43 -383v-38q0 -15 2 -34q-68 -12 -129 -12t-131 12q-13 52 -13 88v58q0 20 4 47q-59 -94 -151 -158t-221 -64t-197 86t-68 234zM446 370.5q0 -162.5 101 -161.5q98 0 182 120 t123 337l31 174q-27 6 -70 6q-175 0 -281 -172q-86 -141 -86 -303.5zM672 1221l209 252q82 12 160 12q112 0 194 -12l-289 -252q-88 -13 -147.5 -13t-126.5 13z" />
<glyph unicode="&#xe2;" horiz-adv-x="1165" d="M147 295q0 148 46.5 291t137.5 254q201 243 541 243q167 0 322 -47l-100 -577q-43 -241 -43 -383v-38q0 -15 2 -34q-68 -12 -129 -12t-131 12q-13 52 -13 88v58q0 20 4 47q-59 -94 -151 -158t-221 -64t-197 86t-68 234zM446 370.5q0 -162.5 101 -161.5q98 0 182 120 t123 337l31 174q-27 6 -70 6q-175 0 -281 -172q-86 -141 -86 -303.5zM473 1219l246 254q88 10 143 10q122 0 178 -13l156 -251q-79 -19 -159.5 -13t-113.5 15l-61 131l-104 -131q-54 -15 -142 -15t-143 13z" />
<glyph unicode="&#xe3;" horiz-adv-x="1165" d="M147 295q0 148 46.5 291t137.5 254q201 243 541 243q167 0 322 -47l-100 -577q-43 -241 -43 -383v-38q0 -15 2 -34q-68 -12 -129 -12t-131 12q-13 52 -13 88v58q0 20 4 47q-59 -94 -151 -158t-221 -64t-197 86t-68 234zM446 370.5q0 -162.5 101 -161.5q98 0 182 120 t123 337l31 174q-27 6 -70 6q-175 0 -281 -172q-86 -141 -86 -303.5zM489 1370q41 45 106.5 80t123 35t91.5 -11.5t67 -24.5q89 -36 132.5 -36t75 9.5t78.5 47.5q64 -74 72 -151q-43 -45 -108.5 -78t-123 -33t-92.5 11.5t-68 24.5q-93 36 -135.5 36t-71 -11.5t-75.5 -45.5 q-23 25 -45.5 66.5t-26.5 80.5z" />
<glyph unicode="&#xe4;" horiz-adv-x="1165" d="M147 295q0 148 46.5 291t137.5 254q201 243 541 243q167 0 322 -47l-100 -577q-43 -241 -43 -383v-38q0 -15 2 -34q-68 -12 -129 -12t-131 12q-13 52 -13 88v58q0 20 4 47q-59 -94 -151 -158t-221 -64t-197 86t-68 234zM446 370.5q0 -162.5 101 -161.5q98 0 182 120 t123 337l31 174q-27 6 -70 6q-175 0 -281 -172q-86 -141 -86 -303.5zM477 1214q5 143 43 242q66 12 133 12q69 0 131 -12q-4 -137 -43 -242q-58 -10 -137 -10t-127 10zM929 1214q-4 126 43 242q66 12 134 12q69 0 131 -12q-9 -136 -43 -242q-58 -10 -136 -10q-81 0 -129 10z " />
<glyph unicode="&#xe5;" horiz-adv-x="1165" d="M147 295q0 148 46.5 291t137.5 254q201 243 541 243q167 0 322 -47l-100 -577q-43 -241 -43 -383v-38q0 -15 2 -34q-68 -12 -129 -12t-131 12q-13 52 -13 88v58q0 20 4 47q-59 -94 -151 -158t-221 -64t-197 86t-68 234zM446 370.5q0 -162.5 101 -161.5q98 0 182 120 t123 337l31 174q-27 6 -70 6q-175 0 -281 -172q-86 -141 -86 -303.5zM684 1400.5q0 103.5 68 180t171 76.5t163.5 -53.5t60.5 -167.5q0 -104 -70 -176q-69 -70 -172.5 -70t-162 53.5t-58.5 157zM825 1409q0 -96 82 -96q43 0 71.5 32.5t28.5 92.5q0 96 -84 96 q-49 0 -73.5 -39t-24.5 -86z" />
<glyph unicode="&#xe6;" horiz-adv-x="1703" d="M147 295q0 148 46.5 291t137.5 254q201 243 527 243q126 0 266 -43l-18 -98q53 53 142 97t179 44t144.5 -16t94.5 -50q85 -72 85 -198q0 -170 -157 -274q-138 -90 -353 -121l-137 -23q24 -194 221 -194q82 0 144.5 17.5t132.5 45.5q55 -68 55 -223q-104 -48 -275 -67 q-49 -5 -88 -5q-343 0 -434 248q-178 -248 -430 -248q-145 0 -214 86t-69 234zM446 370.5q0 -162.5 101 -161.5q102 0 184 120t121 337l31 174q-27 6 -70 6q-175 0 -281 -172q-86 -141 -86 -303.5zM1114 594l107 16q139 21 205 76q49 40 49 87.5t-26 72t-74 24.5t-92 -23.5 t-77 -62.5q-66 -80 -92 -190z" />
<glyph unicode="&#xe7;" horiz-adv-x="942" d="M158 401q0 121 40 243t117.5 219.5t191.5 158.5t263.5 61t259.5 -43q-5 -125 -69 -229q-97 39 -182 39t-144.5 -36t-98.5 -94q-79 -115 -79 -292q0 -113 57 -166t148.5 -53t195.5 43q51 -82 51 -223q-105 -50 -280 -54l-45 -84q16 4 49 5q80 0 127 -43t47 -116 t-27.5 -116t-71.5 -69q-80 -46 -212 -46q-59 0 -109.5 11.5t-69.5 25.5q20 81 58 131q84 -24 127 -24q121 0 121 65q0 35 -28 47.5t-87 12.5t-109 -19l-12 15l111 213q-340 48 -340 417z" />
<glyph unicode="&#xe8;" horiz-adv-x="1042" d="M158 410q0 125 43 245.5t121.5 216t192.5 153.5t255 58q219 0 295 -149q25 -49 25 -128t-43 -146.5t-115 -114.5q-139 -91 -352 -121l-138 -23q12 -98 65.5 -146t146 -48t154.5 17.5t132 45.5q55 -68 55 -223q-104 -47 -274 -67q-49 -5 -131 -5t-171 31t-147 88 q-114 109 -114 316zM445 1473q82 12 176 12t178 -12l182 -252q-115 -20 -181.5 -12t-92.5 12zM453 594l106 16q138 21 205 76q49 39 49 87t-25.5 72.5t-73.5 24.5t-92 -23.5t-77 -62.5q-66 -77 -92 -190z" />
<glyph unicode="&#xe9;" horiz-adv-x="1042" d="M158 410q0 125 43 245.5t121.5 216t192.5 153.5t255 58q219 0 295 -149q25 -49 25 -128t-43 -146.5t-115 -114.5q-139 -91 -352 -121l-138 -23q12 -98 65.5 -146t146 -48t154.5 17.5t132 45.5q55 -68 55 -223q-104 -47 -274 -67q-49 -5 -131 -5t-171 31t-147 88 q-114 109 -114 316zM453 594l106 16q138 21 205 76q49 39 49 87t-25.5 72.5t-73.5 24.5t-92 -23.5t-77 -62.5q-66 -77 -92 -190zM559 1221l209 252q82 12 160 12q112 0 194 -12l-289 -252q-88 -13 -147.5 -13t-126.5 13z" />
<glyph unicode="&#xea;" horiz-adv-x="1042" d="M158 410q0 125 43 245.5t121.5 216t192.5 153.5t255 58q219 0 295 -149q25 -49 25 -128t-43 -146.5t-115 -114.5q-139 -91 -352 -121l-138 -23q12 -98 65.5 -146t146 -48t154.5 17.5t132 45.5q55 -68 55 -223q-104 -47 -274 -67q-49 -5 -131 -5t-171 31t-147 88 q-114 109 -114 316zM387 1219l246 254q88 10 143 10q122 0 178 -13l156 -251q-79 -19 -159.5 -13t-113.5 15l-61 131l-104 -131q-54 -15 -142 -15t-143 13zM453 594l106 16q138 21 205 76q49 39 49 87t-25.5 72.5t-73.5 24.5t-92 -23.5t-77 -62.5q-66 -77 -92 -190z" />
<glyph unicode="&#xeb;" horiz-adv-x="1042" d="M158 410q0 125 43 245.5t121.5 216t192.5 153.5t255 58q219 0 295 -149q25 -49 25 -128t-43 -146.5t-115 -114.5q-139 -91 -352 -121l-138 -23q12 -98 65.5 -146t146 -48t154.5 17.5t132 45.5q55 -68 55 -223q-104 -47 -274 -67q-49 -5 -131 -5t-171 31t-147 88 q-114 109 -114 316zM383 1214q5 143 43 242q66 12 133 12q69 0 131 -12q-4 -137 -43 -242q-58 -10 -137 -10t-127 10zM453 594l106 16q138 21 205 76q49 39 49 87t-25.5 72.5t-73.5 24.5t-92 -23.5t-77 -62.5q-66 -77 -92 -190zM835 1214q-4 126 43 242q66 12 134 12 q69 0 131 -12q-9 -136 -43 -242q-58 -10 -136 -10q-81 0 -129 10z" />
<glyph unicode="&#xec;" horiz-adv-x="638" d="M195 1473q82 12 176 12t178 -12l182 -252q-115 -20 -181.5 -12t-92.5 12zM199 0l147 838h-129l-2 26q0 95 41 195h414l-187 -1059q-78 -12 -144 -12t-140 12z" />
<glyph unicode="&#xed;" horiz-adv-x="638" d="M199 0l147 838h-129l-2 26q0 95 41 195h414l-187 -1059q-78 -12 -144 -12t-140 12zM293 1221l209 252q82 12 160 12q112 0 194 -12l-289 -252q-88 -13 -147.5 -13t-126.5 13z" />
<glyph unicode="&#xee;" horiz-adv-x="638" d="M141 1219l246 254q88 10 143 10q122 0 178 -13l156 -251q-79 -19 -159.5 -13t-113.5 15l-61 131l-104 -131q-54 -15 -142 -15t-143 13zM199 0l147 838h-129l-2 26q0 95 41 195h414l-187 -1059q-78 -12 -144 -12t-140 12z" />
<glyph unicode="&#xef;" horiz-adv-x="638" d="M142 1214q5 143 43 242q66 12 133 12q69 0 131 -12q-4 -137 -43 -242q-58 -10 -137 -10t-127 10zM199 0l147 838h-129l-2 26q0 95 41 195h414l-187 -1059q-78 -12 -144 -12t-140 12zM594 1214q-4 126 43 242q66 12 134 12q69 0 131 -12q-9 -136 -43 -242 q-58 -10 -136 -10q-81 0 -129 10z" />
<glyph unicode="&#xf0;" horiz-adv-x="1171" d="M162 381q0 255 135 426q150 190 395 190q140 0 228 -88q-49 163 -132 246l-182 -108q-57 40 -80 116l140 82q-76 35 -166 39q0 146 53 225q111 0 206 -29.5t152 -76.5l179 104q58 -53 73 -116l-141 -88q115 -145 146 -396q10 -76 10 -182t-33 -245.5t-104.5 -251 t-188.5 -182.5t-302.5 -71t-286.5 110t-101 296zM453 385q0 -197 150 -197q136 0 208 144q57 113 57 270q0 90 -36.5 137t-114.5 47t-128 -40.5t-81 -101.5q-55 -107 -55 -259z" />
<glyph unicode="&#xf1;" horiz-adv-x="1198" d="M150 0l110 604q45 252 45 383v38q0 15 -2 34q68 12 117 12q75 0 145 -12q13 -52 13 -89q0 -53 -7 -100q86 147 247 195q54 16 110 16q260 0 260 -270q0 -48 -14 -139l-119 -672q-78 -12 -150 -12t-141 12l115 649q8 41 8 78q0 111 -103 111q-124 0 -208 -205 q-35 -84 -60 -221l-76 -412q-80 -12 -150.5 -12t-139.5 12zM440 1370q41 45 106.5 80t123 35t91.5 -11.5t67 -24.5q89 -36 132.5 -36t75 9.5t78.5 47.5q64 -74 72 -151q-43 -45 -108.5 -78t-123 -33t-92.5 11.5t-68 24.5q-93 36 -135.5 36t-71 -11.5t-75.5 -45.5 q-23 25 -45.5 66.5t-26.5 80.5z" />
<glyph unicode="&#xf2;" horiz-adv-x="1142" d="M160 389q0 273 147 470q74 99 185.5 161.5t261.5 62.5q213 0 312 -112.5t99 -304.5q0 -278 -145 -472q-165 -219 -451 -219q-211 0 -310 111t-99 303zM451 372.5q0 -175.5 145 -175.5q138 0 218 171q63 134 63 300q0 188 -154 188q-135 0 -213 -176q-59 -132 -59 -307.5z M494 1473q82 12 176 12t178 -12l182 -252q-115 -20 -181.5 -12t-92.5 12z" />
<glyph unicode="&#xf3;" horiz-adv-x="1142" d="M160 389q0 273 147 470q74 99 185.5 161.5t261.5 62.5q213 0 312 -112.5t99 -304.5q0 -278 -145 -472q-165 -219 -451 -219q-211 0 -310 111t-99 303zM451 372.5q0 -175.5 145 -175.5q138 0 218 171q63 134 63 300q0 188 -154 188q-135 0 -213 -176q-59 -132 -59 -307.5z M578 1221l209 252q82 12 160 12q112 0 194 -12l-289 -252q-88 -13 -147.5 -13t-126.5 13z" />
<glyph unicode="&#xf4;" horiz-adv-x="1142" d="M160 389q0 273 147 470q74 99 185.5 161.5t261.5 62.5q213 0 312 -112.5t99 -304.5q0 -278 -145 -472q-165 -219 -451 -219q-211 0 -310 111t-99 303zM418 1219l246 254q88 10 143 10q122 0 178 -13l156 -251q-79 -19 -159.5 -13t-113.5 15l-61 131l-104 -131 q-54 -15 -142 -15t-143 13zM451 372.5q0 -175.5 145 -175.5q138 0 218 171q63 134 63 300q0 188 -154 188q-135 0 -213 -176q-59 -132 -59 -307.5z" />
<glyph unicode="&#xf5;" horiz-adv-x="1142" d="M160 389q0 273 147 470q74 99 185.5 161.5t261.5 62.5q213 0 312 -112.5t99 -304.5q0 -278 -145 -472q-165 -219 -451 -219q-211 0 -310 111t-99 303zM413 1370q41 45 106.5 80t123 35t91.5 -11.5t67 -24.5q89 -36 132.5 -36t75 9.5t78.5 47.5q64 -74 72 -151 q-43 -45 -108.5 -78t-123 -33t-92.5 11.5t-68 24.5q-93 36 -135.5 36t-71 -11.5t-75.5 -45.5q-23 25 -45.5 66.5t-26.5 80.5zM451 372.5q0 -175.5 145 -175.5q138 0 218 171q63 134 63 300q0 188 -154 188q-135 0 -213 -176q-59 -132 -59 -307.5z" />
<glyph unicode="&#xf6;" horiz-adv-x="1142" d="M160 389q0 273 147 470q74 99 185.5 161.5t261.5 62.5q213 0 312 -112.5t99 -304.5q0 -278 -145 -472q-165 -219 -451 -219q-211 0 -310 111t-99 303zM432 1214q5 143 43 242q66 12 133 12q69 0 131 -12q-4 -137 -43 -242q-58 -10 -137 -10t-127 10zM451 372.5 q0 -175.5 145 -175.5q138 0 218 171q63 134 63 300q0 188 -154 188q-135 0 -213 -176q-59 -132 -59 -307.5zM884 1214q-4 126 43 242q66 12 134 12q69 0 131 -12q-9 -136 -43 -242q-58 -10 -136 -10q-81 0 -129 10z" />
<glyph unicode="&#xf7;" d="M309 600q0 119 43 248h862l3 -31q0 -98 -46 -217h-862zM502 286q0 48 14 81.5t40 59.5q56 56 131 56t116 -41t41 -96t-14.5 -88t-41.5 -58q-56 -55 -133.5 -55t-115 46.5t-37.5 94.5zM643 1117q0 48 14.5 82t40.5 59q56 57 131 57t115.5 -41t40.5 -96.5t-14.5 -88 t-40.5 -57.5q-57 -55 -134 -55t-115 46t-38 94z" />
<glyph unicode="&#xf8;" horiz-adv-x="1142" d="M135 -53l117 147q-92 104 -92 295q0 273 147 470q74 99 185.5 161.5t256 62.5t238.5 -53l60 76q25 6 58 6q73 0 97 -6l-121 -154q84 -109 84 -286q0 -278 -145 -472q-165 -219 -451 -219q-127 0 -221 45l-57 -73q-21 -6 -62 -6q-71 0 -94 6zM451 348l372 475 q-39 33 -108.5 33t-120.5 -51t-84 -125q-59 -132 -59 -301v-31zM508 221q33 -25 99.5 -24.5t119.5 49.5t87 122q63 134 63 300v22z" />
<glyph unicode="&#xf9;" horiz-adv-x="1198" d="M197 248q0 48 14 139l119 672q78 12 148.5 12t142.5 -12l-115 -649q-8 -41 -8 -78q0 -111 102 -111q123 0 209 204q35 83 59 222l76 412q80 12 150 12t141 -12l-111 -604q-45 -252 -45 -383v-38q0 -16 2 -34q-68 -12 -130 -12t-132 12q-12 48 -12 86q0 63 6 102 q-85 -145 -247 -194q-54 -17 -109 -17q-123 0 -191.5 62.5t-68.5 208.5zM445 1473q82 12 176 12t178 -12l182 -252q-115 -20 -181.5 -12t-92.5 12z" />
<glyph unicode="&#xfa;" horiz-adv-x="1198" d="M197 248q0 48 14 139l119 672q78 12 148.5 12t142.5 -12l-115 -649q-8 -41 -8 -78q0 -111 102 -111q123 0 209 204q35 83 59 222l76 412q80 12 150 12t141 -12l-111 -604q-45 -252 -45 -383v-38q0 -16 2 -34q-68 -12 -130 -12t-132 12q-12 48 -12 86q0 63 6 102 q-85 -145 -247 -194q-54 -17 -109 -17q-123 0 -191.5 62.5t-68.5 208.5zM639 1221l209 252q82 12 160 12q112 0 194 -12l-289 -252q-88 -13 -147.5 -13t-126.5 13z" />
<glyph unicode="&#xfb;" horiz-adv-x="1198" d="M197 248q0 48 14 139l119 672q78 12 148.5 12t142.5 -12l-115 -649q-8 -41 -8 -78q0 -111 102 -111q123 0 209 204q35 83 59 222l76 412q80 12 150 12t141 -12l-111 -604q-45 -252 -45 -383v-38q0 -16 2 -34q-68 -12 -130 -12t-132 12q-12 48 -12 86q0 63 6 102 q-85 -145 -247 -194q-54 -17 -109 -17q-123 0 -191.5 62.5t-68.5 208.5zM432 1219l246 254q88 10 143 10q122 0 178 -13l156 -251q-79 -19 -159.5 -13t-113.5 15l-61 131l-104 -131q-54 -15 -142 -15t-143 13z" />
<glyph unicode="&#xfc;" horiz-adv-x="1198" d="M197 248q0 48 14 139l119 672q78 12 148.5 12t142.5 -12l-115 -649q-8 -41 -8 -78q0 -111 102 -111q123 0 209 204q35 83 59 222l76 412q80 12 150 12t141 -12l-111 -604q-45 -252 -45 -383v-38q0 -16 2 -34q-68 -12 -130 -12t-132 12q-12 48 -12 86q0 63 6 102 q-85 -145 -247 -194q-54 -17 -109 -17q-123 0 -191.5 62.5t-68.5 208.5zM449 1214q5 143 43 242q66 12 133 12q69 0 131 -12q-4 -137 -43 -242q-58 -10 -137 -10t-127 10zM901 1214q-4 126 43 242q66 12 134 12q69 0 131 -12q-9 -136 -43 -242q-58 -10 -136 -10 q-81 0 -129 10z" />
<glyph unicode="&#xfd;" horiz-adv-x="1110" d="M55 -475q9 132 58 215q43 -19 78 -19t67.5 5.5t70.5 31.5q90 60 165 222l10 22q-35 -6 -80 -6h-72q-26 0 -47 4l-96 1059q76 12 153 12t148 -12l55 -926q312 655 324 823q2 27 2 50t-6 53q70 12 152.5 12t154.5 -12q6 -18 6 -48t-9 -72t-23 -84q-14 -45 -61 -161 q-67 -161 -388 -815q-163 -329 -377 -367q-64 -12 -132 -12t-153 25zM553 1221l209 252q82 12 160 12q112 0 194 -12l-289 -252q-88 -13 -147.5 -13t-126.5 13z" />
<glyph unicode="&#xfe;" horiz-adv-x="1204" d="M66 -483l268 1523q47 264 47 383v39q0 15 -2 33q68 12 116 12q113 0 171 -10q10 -40 10 -84t-3 -78.5t-9.5 -76t-14.5 -88t-16 -93.5l-39 -200q47 88 132 147t218 59t210 -98t77 -285q0 -289 -163 -490q-192 -235 -550 -235q-42 0 -80 7l-82 -465q-67 -13 -124 -13 q-111 0 -166 13zM481 227q27 -10 105.5 -10t143.5 42t107 107q81 124 81 293q0 72 -30 124.5t-113 52.5t-150.5 -80t-98.5 -264z" />
<glyph unicode="&#xff;" horiz-adv-x="1110" d="M55 -475q9 132 58 215q43 -19 78 -19t67.5 5.5t70.5 31.5q90 60 165 222l10 22q-35 -6 -80 -6h-72q-26 0 -47 4l-96 1059q76 12 153 12t148 -12l55 -926q312 655 324 823q2 27 2 50t-6 53q70 12 152.5 12t154.5 -12q6 -18 6 -48t-9 -72t-23 -84q-14 -45 -61 -161 q-67 -161 -388 -815q-163 -329 -377 -367q-64 -12 -132 -12t-153 25zM363 1214q5 143 43 242q66 12 133 12q69 0 131 -12q-4 -137 -43 -242q-58 -10 -137 -10t-127 10zM815 1214q-4 126 43 242q66 12 134 12q69 0 131 -12q-9 -136 -43 -242q-58 -10 -136 -10q-81 0 -129 10z " />
<glyph unicode="&#x152;" horiz-adv-x="1841" d="M205 532q0 168 45 339t137 310.5t233.5 227.5t335.5 88q123 0 220 -24h806l3 -33q0 -102 -48 -221h-507l-56 -320h404q0 -123 -45 -256h-404l-69 -389h522l2 -31q0 -75 -45 -223h-815q-98 -25 -222 -25t-219.5 39t-156.5 111q-121 141 -121 407zM516 537 q0 -162 52.5 -242t168.5 -80q136 0 226 49l167 957q-360 124 -521 -236q-93 -208 -93 -448z" />
<glyph unicode="&#x153;" horiz-adv-x="1718" d="M160 389q0 123 36.5 247t108.5 223t180.5 161.5t246.5 62.5t217 -53t116 -129q70 72 167 127t234 55q200 0 274 -149q25 -49 25 -128t-43 -146.5t-114 -114.5q-138 -91 -353 -121l-137 -23q24 -194 221 -194q82 0 144.5 17.5t132.5 45.5q55 -68 55 -223 q-104 -47 -274 -67q-49 -5 -88 -5q-152 0 -238 55.5t-127 129.5q-163 -185 -401 -185q-190 0 -286.5 111t-96.5 303zM451 372.5q0 -175.5 145 -175.5q138 0 218 171q63 134 63 300q0 188 -154 188q-135 0 -213 -176q-59 -132 -59 -307.5zM1128 594l107 16q139 21 205 76 q49 40 49 87.5t-25.5 72t-73.5 24.5t-92.5 -23.5t-77.5 -62.5q-63 -76 -92 -190z" />
<glyph unicode="&#x178;" horiz-adv-x="1153" d="M242 1473q88 12 146 12q110 0 169 -12l158 -654l379 654q68 10 133 10q119 0 184 -10l-600 -947l-92 -526q-65 -12 -128 -12q-115 0 -173 12l92 526zM491 1591q4 138 43 242q66 12 133 12q71 0 131 -12q-4 -142 -43 -242q-58 -10 -137 -10t-127 10zM944 1591 q-4 131 43 242q66 12 133 12q69 0 131 -12q-9 -136 -43 -242q-58 -10 -135 -10q-81 0 -129 10z" />
<glyph unicode="&#x2c6;" horiz-adv-x="1019" d="M377 1219l246 254q88 10 143 10q122 0 178 -13l156 -251q-79 -19 -159.5 -13t-113.5 15l-61 131l-104 -131q-54 -15 -142 -15t-143 13z" />
<glyph unicode="&#x2dc;" horiz-adv-x="1024" d="M354 1370q41 45 106.5 80t123 35t91.5 -11.5t67 -24.5q89 -36 132.5 -36t75 9.5t78.5 47.5q64 -74 72 -151q-43 -45 -108.5 -78t-123 -33t-92.5 11.5t-68 24.5q-93 36 -135.5 36t-71 -11.5t-75.5 -45.5q-23 25 -45.5 66.5t-26.5 80.5z" />
<glyph unicode="&#x2000;" horiz-adv-x="958" />
<glyph unicode="&#x2001;" horiz-adv-x="1917" />
<glyph unicode="&#x2002;" horiz-adv-x="958" />
<glyph unicode="&#x2003;" horiz-adv-x="1917" />
<glyph unicode="&#x2004;" horiz-adv-x="639" />
<glyph unicode="&#x2005;" horiz-adv-x="479" />
<glyph unicode="&#x2006;" horiz-adv-x="319" />
<glyph unicode="&#x2007;" horiz-adv-x="319" />
<glyph unicode="&#x2008;" horiz-adv-x="239" />
<glyph unicode="&#x2009;" horiz-adv-x="383" />
<glyph unicode="&#x200a;" horiz-adv-x="106" />
<glyph unicode="&#x2010;" horiz-adv-x="749" d="M207 475q0 113 43 252h512q4 -112 -43 -252h-512z" />
<glyph unicode="&#x2011;" horiz-adv-x="749" d="M207 475q0 113 43 252h512q4 -112 -43 -252h-512z" />
<glyph unicode="&#x2012;" horiz-adv-x="749" d="M207 475q0 113 43 252h512q4 -112 -43 -252h-512z" />
<glyph unicode="&#x2013;" horiz-adv-x="1024" d="M82 436q-3 116 41 252h1024q7 -103 -43 -252h-1022z" />
<glyph unicode="&#x2014;" horiz-adv-x="2048" d="M68 436q-8 130 41 252h2048q7 -103 -43 -252h-2046z" />
<glyph unicode="&#x2018;" horiz-adv-x="581" d="M283 1470q66 15 145 15t137 -15l135 -524q-52 -12 -131 -12q-85 0 -137 12z" />
<glyph unicode="&#x2019;" horiz-adv-x="557" d="M231 946l228 524q66 15 139 15q90 0 143 -15l-241 -524q-53 -12 -140 -12q-80 0 -129 12z" />
<glyph unicode="&#x201a;" horiz-adv-x="593" d="M37 -229l221 522q56 16 139 16q91 0 144 -16l-234 -522q-60 -13 -139 -13q-80 0 -131 13z" />
<glyph unicode="&#x201c;" horiz-adv-x="1015" d="M283 1470q66 15 145 15t137 -15l135 -524q-52 -12 -131 -12q-85 0 -137 12zM717 1470q66 15 145 15t137 -15l135 -524q-52 -12 -131 -12q-85 0 -137 12z" />
<glyph unicode="&#x201d;" horiz-adv-x="991" d="M231 946l228 524q66 15 139 15q90 0 143 -15l-241 -524q-53 -12 -140 -12q-80 0 -129 12zM665 946l228 524q66 15 139 15q90 0 143 -15l-241 -524q-53 -12 -140 -12q-80 0 -129 12z" />
<glyph unicode="&#x201e;" horiz-adv-x="1028" d="M37 -229l221 522q56 16 139 16q91 0 144 -16l-234 -522q-60 -13 -139 -13q-80 0 -131 13zM471 -229l221 522q56 16 139 16q91 0 144 -16l-234 -522q-60 -13 -139 -13q-80 0 -131 13z" />
<glyph unicode="&#x2022;" horiz-adv-x="921" d="M281 752q0 124 90 216q89 91 217 91q125 0 216 -91t91 -216q0 -130 -91 -218q-94 -90 -216 -90q-125 0 -217 90q-90 89 -90 218z" />
<glyph unicode="&#x2026;" horiz-adv-x="1697" d="M145 0q0 141 52 299q72 14 153 14t146 -14q0 -141 -52 -299q-72 -14 -153 -14t-146 14zM698 0q0 141 52 299q72 14 153 14t146 -14q0 -141 -52 -299q-72 -14 -153 -14t-146 14zM1251 0q0 141 52 299q72 14 153 14t146 -14q0 -141 -52 -299q-72 -14 -153 -14t-146 14z" />
<glyph unicode="&#x202f;" horiz-adv-x="383" />
<glyph unicode="&#x2039;" horiz-adv-x="782" d="M178 551l430 448q150 29 318 0l-437 -467l256 -442q-80 -12 -157.5 -12t-141.5 12z" />
<glyph unicode="&#x203a;" horiz-adv-x="800" d="M72 90l442 479l-262 430q171 26 299 0l270 -471l-424 -438q-66 -12 -127 -12q-116 0 -198 12z" />
<glyph unicode="&#x205f;" horiz-adv-x="479" />
<glyph unicode="&#x20ac;" d="M133 457q-4 88 31 172h155q10 112 21 166h-145q-8 79 28 172h166q88 232 267 365q184 138 442 138q204 0 325 -65q-21 -112 -86 -234q-111 43 -247 43t-229 -68.5t-146 -178.5h422q9 -62 -29 -172h-449q-14 -80 -18 -166h436q6 -39 -4 -89.5t-26 -82.5h-400 q18 -113 86 -167t201 -54q96 0 147.5 15t89.5 28q45 -104 54 -246q-145 -58 -317.5 -58t-271.5 34t-166 97q-131 125 -148 351h-189z" />
<glyph unicode="&#x2122;" horiz-adv-x="1638" d="M242 1253q-19 97 0 195h602q8 -50 8 -98q0 -51 -8 -97h-195v-622q-73 -15 -117 -15t-94 15v622h-196zM926 631l45 815q87 10 110.5 10t48.5 -3t60 -7l156 -389l151 389q73 10 99 10q35 0 112 -10l45 -815q-71 -13 -99 -13q-69 0 -112 13l-26 416l-115 -269q-27 -6 -59 -6 q-54 0 -97 6l-94 260l-21 -407q-40 -13 -84 -13t-120 13z" />
<glyph unicode="&#xe000;" horiz-adv-x="1075" d="M0 0v1075h1075v-1075h-1075z" />
</font>
</defs>
</svg>
